Торрент файл
скачать торрент магнет ссылка Добавлен: 03 мар 2017, 16:00
Размер: 9.03 ГБ
Сидеров: 59
Личеров: 58
Автор

СообщениеДобавлено: 03 мар 2017, 16:00 

Не в сети
Супермодератор
Аватара пользователя
Дата регистрации:
15 фев 2012, 16:44
Возраст: 28
Спасибо: 6642 / 2146
Сообщения: 45664
Год выхода: 1995
Жанр: драма, мелодрама
Режиссер: Ричард Линклейтер

В ролях: Итан Хоук, Жюли Дельпи, Андреа Экерт, Ханно Пёшль, Карл Брукшвайгер, Текс Рубиновиц, Эрни Мангольд, Доминик Кастелль, Хаймон Мария, Буттингер, Харольд Вайглайн, ...

О фильме: Молодой американец Джесси знакомится в поезде с красивой француженкой Селин. Они сразу находят много общих тем для разговоров, и Джесси уговаривает Селин сойти вместе с ним в Вене, чтобы провести вместе вечер и ночь, так как наутро он должен улететь домой в Штаты.
Этой ночью происходит чудо, между мужчиной и женщиной рождается любовь такая сильная, что всё остальное перестаёт иметь значение. Однако неумолимый обратный отсчёт продолжается, до рассвета осталось совсем немного времени, и влюблённые используют каждый драгоценный момент, чтобы узнать друг друга получше, чтобы успеть обменяться всеми своими воспоминаниями, мечтами и нежностью… перед рассветом…



Страна: США, Австрия, Швейцария
Продолжительность: 01:41:05
Перевод1: Профессиональный (многоголосный, закадровый) [НТВ+]
Перевод2: Профессиональный (двухголосый, закадровый) ?
Перевод3: Авторский (одноголосый, закадровый) [Карцев Петр]

Кодек: x264
Качество: BDRip 1080p
Видео: 1920x1036, 12000 kbps, 23,976 fps
Аудио #1: AC-3, 2 ch, 192 kbps (Rus) - MVO НТВ+
Аудио #2: AC-3, 2 ch, 192 kbps (Rus) - DVO
Аудио #3: AC-3, 2 ch, 192 kbps (Rus) - AVO Карцев Петр
Аудио #4: AC-3, 2 ch, 224 kbps (Eng)
Субтитры: Русские, Английские

x264 [info]: frame I:697 Avg QP:17.16 size:226646
x264 [info]: frame P:25200 Avg QP:19.62 size:108906
x264 [info]: frame B:119520 Avg QP:21.67 size: 51775
x264 [info]: consecutive B-frames: 0.8% 0.6% 2.3% 7.0% 15.8% 48.0% 10.0% 3.4% 3.3% 4.4% 2.2% 1.7% 0.4%

Общее
Уникальный идентификатор : 198420237331449487404118932705334956375 (0x954659009139842EA7324FC59ADA9157)
Полное имя : Перед рассветом (Before Sunrise) 1995 BDRip 1080p.mkv
Формат : Matroska
Версия формата : Version 2
Размер файла : 9,03 Гбайт
Продолжительность : 1 ч. 41 м.
Общий поток : 12,8 Мбит/сек
Дата кодирования : UTC 2017-03-01 17:50:18
Программа кодирования : mkvmerge v4.0.0 ('The Stars were mine') сборка от Jun 6 2010 16:18:42
Библиотека кодирования : libebml v1.0.0 + libmatroska v1.0.0

Видео
Идентификатор : 1
Формат : AVC
Формат/Информация : Advanced Video Codec
Профиль формата : High@L4.1
Параметр CABAC формата : Да
Параметр ReFrames формата : 4 кадра
Идентификатор кодека : V_MPEG4/ISO/AVC
Продолжительность : 1 ч. 41 м.
Битрейт : 12,0 Мбит/сек
Ширина : 1920 пикселей
Высота : 1036 пикселей
Соотношение сторон : 1,85:1
Режим частоты кадров : Постоянный
Частота кадров : 23,976 (24000/1001) кадра/сек
Цветовое пространство : YUV
Субдискретизация насыщенности : 4:2:0
Битовая глубина : 8 бит
Тип развёртки : Прогрессивная
Бит/(Пиксели*Кадры) : 0.252
Размер потока : 8,29 Гбайт (92%)
Библиотека кодирования : x264 core 146 r2538 121396c
Настройки программы : cabac=1 / ref=4 / deblock=1:-2:-2 / analyse=0x3:0x133 / me=umh / subme=11 / psy=1 / psy_rd=1.00:0.00 / mixed_ref=1 / me_range=32 / chroma_me=1 / trellis=2 / 8x8dct=1 / cqm=0 / deadzone=21,11 / fast_pskip=0 / chroma_qp_offset=-2 / threads=12 / lookahead_threads=2 / sliced_threads=0 / nr=0 / decimate=0 / interlaced=0 / bluray_compat=0 / constrained_intra=0 / bframes=12 / b_pyramid=2 / b_adapt=2 / b_bias=0 / direct=3 / weightb=1 / open_gop=0 / weightp=2 / keyint=240 / keyint_min=23 / scenecut=40 / intra_refresh=0 / rc=2pass / mbtree=0 / bitrate=12000 / ratetol=1.0 / qcomp=0.60 / qpmin=0 / qpmax=69 / qpstep=4 / cplxblur=20.0 / qblur=0.5 / ip_ratio=1.40 / pb_ratio=1.30 / aq=3:0.80
Язык : English
Default : Нет
Forced : Нет

Аудио #1
Идентификатор : 2
Формат : AC-3
Формат/Информация : Audio Coding 3
Расширение режима : CM (complete main)
Параметр Endianness формата : Big
Идентификатор кодека : A_AC3
Продолжительность : 1 ч. 41 м.
Вид битрейта : Постоянный
Битрейт : 192 Кбит/сек
Каналы : 2 канала
Расположение каналов : Front: L R
Частота : 48,0 КГц
Частота кадров : 31,250 кадров/сек (1536 spf)
Метод сжатия : С потерями
Размер потока : 139 Мбайт (2%)
Заголовок : MVO НТВ+
Язык : Russian
Default : Нет
Forced : Нет

Аудио #2
Идентификатор : 3
Формат : AC-3
Формат/Информация : Audio Coding 3
Расширение режима : CM (complete main)
Параметр Endianness формата : Big
Идентификатор кодека : A_AC3
Продолжительность : 1 ч. 41 м.
Вид битрейта : Постоянный
Битрейт : 192 Кбит/сек
Каналы : 2 канала
Расположение каналов : Front: L R
Частота : 48,0 КГц
Частота кадров : 31,250 кадров/сек (1536 spf)
Метод сжатия : С потерями
Размер потока : 139 Мбайт (2%)
Заголовок : DVO
Язык : Russian
Default : Нет
Forced : Нет

Аудио #3
Идентификатор : 4
Формат : AC-3
Формат/Информация : Audio Coding 3
Расширение режима : CM (complete main)
Параметр Endianness формата : Big
Идентификатор кодека : A_AC3
Продолжительность : 1 ч. 41 м.
Вид битрейта : Постоянный
Битрейт : 192 Кбит/сек
Каналы : 2 канала
Расположение каналов : Front: L R
Частота : 48,0 КГц
Частота кадров : 31,250 кадров/сек (1536 spf)
Метод сжатия : С потерями
Размер потока : 139 Мбайт (2%)
Заголовок : AVO Карцев Петр
Язык : Russian
Default : Нет
Forced : Нет

Аудио #4
Идентификатор : 5
Формат : AC-3
Формат/Информация : Audio Coding 3
Расширение режима : CM (complete main)
Параметр Endianness формата : Big
Идентификатор кодека : A_AC3
Продолжительность : 1 ч. 41 м.
Вид битрейта : Постоянный
Битрейт : 224 Кбит/сек
Каналы : 2 канала
Расположение каналов : Front: L R
Частота : 48,0 КГц
Частота кадров : 31,250 кадров/сек (1536 spf)
Метод сжатия : С потерями
Размер потока : 162 Мбайт (2%)
Язык : English
Default : Нет
Forced : Нет

Текст #1
Идентификатор : 6
Формат : UTF-8
Идентификатор кодека : S_TEXT/UTF8
Идентификатор кодека/Информация : UTF-8 Plain Text
Язык : Russian
Default : Нет
Forced : Нет

Текст #2
Идентификатор : 7
Формат : UTF-8
Идентификатор кодека : S_TEXT/UTF8
Идентификатор кодека/Информация : UTF-8 Plain Text
Заголовок : SDH
Язык : English
Default : Нет
Forced : Нет


_________________
Проголосуй за трекер Открытый торрент трекер - RUS-MEDIA.ORG

Проголосуй Открытый торрент трекер - RUS-MEDIA.ORG



реклама партнёра


Вернуться к началу
 Профиль Отправить личное сообщение  
 
   Похожие торренты   Автор   Торрент   Размер 
В этой теме нет новых непрочитанных сообщений. Перед рассветом / Before Sunrise [драма, мелодрама, 1995] BDRip 720p, Mvo

salma3

17 | 4

7.73 ГБ

В этой теме нет новых непрочитанных сообщений. Перед рассветом / Before Sunrise [драма, мелодрама, 1995] WEB-DL 720p, Mvo+Dvo+Avo+Sub

salma3

29 | 4

3.49 ГБ

В этой теме нет новых непрочитанных сообщений. Перед самым рассветом / Just Before Dawn [ужасы, триллер, 1981] BDRip 1080p, Avo

salma3

11 | 13

6.8 ГБ

В этой теме нет новых непрочитанных сообщений. Первый рыцарь / First Knight [Боевик, триллер, мелодрама, приключения, 1995] BDRip 1080p, Dub+4Mvo+Dvo+Avo+Sub

salma3

17 | 41

16.02 ГБ

В этой теме нет новых непрочитанных сообщений. Шоугелз / Showgirls [Драма, мелодрама, криминал, 1995] BDRemux 1080p, Dub

salma3

0 | 7

42.18 ГБ

В этой теме нет новых непрочитанных сообщений. Сабрина / Sabrina [Драма, мелодрама, комедия, 1995] BDRemux 1080p, Mvo

salma3

12 | 16

31.75 ГБ

В этой теме нет новых непрочитанных сообщений. Первый рыцарь / First Knight [Мелодрама, приключения, драма, 1995] BDRemux 1080p, Dub

salma3

3 | 2

28.11 ГБ


Начать новую тему Ответить на тему  [ 1 сообщение ] 




Для Мосгорсуда, Роскомнадзора и рекламодателей:: mosgorsud-torrent[собачка]yandex.ru