Торрент файл
скачать торрент магнет ссылка Добавлен: 03 мар 2017, 14:45
Размер: 3.24 ГБ
Сидеров: 13
Личеров: 33
Статус: (salma3)
Автор

СообщениеДобавлено: 03 мар 2017, 14:45 

Не в сети
Супермодератор
Аватара пользователя
Дата регистрации:
15 фев 2012, 16:44
Возраст: 28
Спасибо: 6644 / 2146
Сообщения: 45958
Год выхода: 1995
Жанр: драма, приключения, семейный
Режиссер: Дуайт Х. Литтл

В ролях: Джейсон Джеймс Рихтер, Фрэнсис Капра, Мэри Кейт Шеллхардт, Аугуст Шелленберг, Майкл Мэдсен, Джейн Эткинсон, Майкелти Уильямсон, Элизабет Пенья, Джон Тенни, Пол Туэрпе, ...

О фильме: Прошло два года с тех пор, как Вилли был выпущен на волю. Во время каникул Джесси с родителями отправляется на побережье, где люди часто видели одинокую косатку. Встреча старых друзей была радостной, но, к сожалению, недолгой: старый танкер сел на мель, и нефть, вытекающая из судна, поставила под угрозу жизнь Вилли и всех остальных обитателей океана…



Страна: Франция, США
Продолжительность: 01:37:52
Перевод: Профессиональный (многоголосный, закадровый) [R5 «Гемини-Фильм»]

Кодек: MPEG4/ISO/AVC
Качество: WEB-DL 720p
Видео: 1280x534, 3873 kbps, 23,976 fps
Аудио #1: AC-3, 6 ch, 384 kbps (Rus) - MVO R5 «Гемини-Фильм»
Аудио #2: AC-3, 6 ch, 384 kbps (Eng)
Субтитры: Русские, Английские

Общее
Уникальный идентификатор : 191735011840284699919821081139297084770 (0x903ED1F00BD4B64DB7E8D2558A6F6562)
Полное имя : Освободите Вилли 2 Новое приключение (Free Willy 2 The Adventure...) 1995 WEB-DL 720p.mkv
Формат : Matroska
Версия формата : Version 2
Размер файла : 3,24 Гбайт
Продолжительность : 1 ч. 37 м.
Общий поток : 4736 Кбит/сек
Дата кодирования : UTC 2017-02-24 00:27:42
Программа кодирования : mkvmerge v4.0.0 ('The Stars were mine') сборка от Jun 6 2010 16:18:42
Библиотека кодирования : libebml v1.0.0 + libmatroska v1.0.0

Видео
Идентификатор : 1
Формат : AVC
Формат/Информация : Advanced Video Codec
Профиль формата : Main@L3.1
Параметр CABAC формата : Нет
Параметр ReFrames формата : 2 кадра
Идентификатор кодека : V_MPEG4/ISO/AVC
Продолжительность : 1 ч. 37 м.
Битрейт : 3873 Кбит/сек
Ширина : 1280 пикселей
Высота : 534 пикселя
Соотношение сторон : 2,40:1
Режим частоты кадров : Постоянный
Частота кадров : 23,976 кадра/сек
Цветовое пространство : YUV
Субдискретизация насыщенности : 4:2:0
Битовая глубина : 8 бит
Тип развёртки : Прогрессивная
Бит/(Пиксели*Кадры) : 0.236
Размер потока : 2,65 Гбайт (82%)
Язык : English
Default : Нет
Forced : Нет
Цветовой диапазон : Limited
Основные цвета : BT.709
Характеристики трансфера : BT.709
Коэффициенты матрицы : BT.709

Аудио #1
Идентификатор : 2
Формат : AC-3
Формат/Информация : Audio Coding 3
Расширение режима : CM (complete main)
Параметр Endianness формата : Big
Идентификатор кодека : A_AC3
Продолжительность : 1 ч. 37 м.
Вид битрейта : Постоянный
Битрейт : 384 Кбит/сек
Каналы : 6 каналов
Расположение каналов : Front: L C R, Side: L R, LFE
Частота : 48,0 КГц
Частота кадров : 31,250 кадров/сек (1536 spf)
Метод сжатия : С потерями
Размер потока : 269 Мбайт (8%)
Заголовок : MVO R5 «Гемини-Фильм»
Язык : Russian
Default : Нет
Forced : Нет

Аудио #2
Идентификатор : 3
Формат : AC-3
Формат/Информация : Audio Coding 3
Расширение режима : CM (complete main)
Параметр Endianness формата : Big
Идентификатор кодека : A_AC3
Продолжительность : 1 ч. 37 м.
Вид битрейта : Постоянный
Битрейт : 384 Кбит/сек
Каналы : 6 каналов
Расположение каналов : Front: L C R, Side: L R, LFE
Частота : 48,0 КГц
Частота кадров : 31,250 кадров/сек (1536 spf)
Метод сжатия : С потерями
Размер потока : 269 Мбайт (8%)
Язык : English
Default : Нет
Forced : Нет

Текст #1
Идентификатор : 4
Формат : UTF-8
Идентификатор кодека : S_TEXT/UTF8
Идентификатор кодека/Информация : UTF-8 Plain Text
Язык : Russian
Default : Нет
Forced : Нет

Текст #2
Идентификатор : 5
Формат : UTF-8
Идентификатор кодека : S_TEXT/UTF8
Идентификатор кодека/Информация : UTF-8 Plain Text
Язык : English
Default : Нет
Forced : Нет


_________________
Проголосуй за трекер Открытый торрент трекер - RUS-MEDIA.ORG

Проголосуй Открытый торрент трекер - RUS-MEDIA.ORG



реклама партнёра


Вернуться к началу
 Профиль Отправить личное сообщение  
 
   Похожие торренты   Автор   Торрент   Размер 
В этой теме нет новых непрочитанных сообщений. Освободите Вилли / Free Willy [драма, приключения, семейный, 1993] BDRemux 1080р, Dub+Mvo+Dvo+Avo+Sub

salma3

9 | 10

25.92 ГБ

В этой теме нет новых непрочитанных сообщений. Освободите Вилли 3: Спасение / Free Willy 3: The Rescue [драма, приключения, семейный, 1997] WEBRip 1080p, Mvo+Sub

salma3

15 | 34

6.65 ГБ

В этой теме нет новых непрочитанных сообщений. Удивительное приключение панды / The Amazing Panda Adventure [драма, приключения, семейный, 1995] WEB-DLRip, Dub

salma3

66 | 8

1.09 ГБ

В этой теме нет новых непрочитанных сообщений. Большое приключение Пи - Ви / Pee-wee's Big Adventure [фэнтези, комедия, приключения, семейный, 1985] BDRip 1080p, Dub+Sub

salma3

31 | 0

9.43 ГБ

В этой теме нет новых непрочитанных сообщений. Вдали от дома: Приключения жёлтого пса / Far from Home: The Adventures of Yellow Do [приключения, семейный, 1995] HDTVRip, Mvo

salma3

116 | 12

1.37 ГБ

В этой теме нет новых непрочитанных сообщений. Том и Джерри: Вилли Вонка и шоколадная фабрика / Tom and Jerry: Willy Wonka and the Chocolate Factory [мультфильм, мюзикл, комедия, 2017] WEB-DLRip, Mvo

salma3

705 | 42

1.45 ГБ

В этой теме нет новых непрочитанных сообщений. Дом странных детей Мисс Перегрин / Miss Peregrine's Home for Peculiar Children (фэнтези, драма, приключения, семейный, 2016) BDRip 720p от k.e.n | Лицензия

marya111

1403 | 175

4.37 ГБ


Начать новую тему Ответить на тему  [ 1 сообщение ] 




Для Мосгорсуда, Роскомнадзора и рекламодателей:: mosgorsud-torrent[собачка]yandex.ru