Торрент файл
скачать торрент магнет ссылка Добавлен: 03 мар 2017, 14:41
Размер: 6.65 ГБ
Сидеров: 15
Личеров: 34
Статус: (salma3)
Автор

СообщениеДобавлено: 03 мар 2017, 14:41 

В сети
Супермодератор
Аватара пользователя
Дата регистрации:
15 фев 2012, 16:44
Возраст: 28
Спасибо: 6833 / 2147
Сообщения: 49433
Год выхода: 1997
Жанр: драма, приключения, семейный
Режиссер: Сэм Пиллсбери

В ролях: Джейсон Джеймс Рихтер, Аугуст Шелленберг, Энни Корли, Винсент Берри, Пэтрик Килпэтрик, Таша Симс, Питер ЛаКруа, Стивен Е. Миллер, Иэн Трейси, Мэттью Уолкер, ...

О фильме: Однажды китобой, занимющийся незаконным промыслом, решает взять с собой в море малолетнего сына с тем, чтобы научить его «искусству» убивать китов. Но судьба распорядилась так, что он сам становится объектом охоты кита — убийцы. Лишь дружба мальчика с косаткой спасает китобоя от неминуемой гибели…



Страна: США
Продолжительность: 01:25:32
Перевод: Профессиональный (многоголосный, закадровый) [R5 «Гемини-Фильм»]

Кодек: x264
Качество: WEBRip 1080p
Видео: 1920x1080, 10300 kbps, 23,976 fps
Аудио #1: AC-3, 6 ch, 384 kbps (Rus) - MVO R5 «Гемини-Фильм»
Аудио #2: AC-3, 2 ch, 224 kbps (Eng)
Субтитры: Русские, Английские

Общее
Уникальный идентификатор : 177420712012577125668163566569216395619 (0x8579FC77BB2DDCC2B0B5A1C0D555C963)
Полное имя : Освободите Вилли 3 Спасение (Free Willy 3 The Rescue) 1997 WEBRip 1080p.mkv
Формат : Matroska
Версия формата : Version 2
Размер файла : 6,65 Гбайт
Продолжительность : 1 ч. 25 м.
Режим общего битрейта : Переменный
Общий поток : 11,1 Мбит/сек
Дата кодирования : UTC 2017-02-23 22:30:37
Программа кодирования : mkvmerge v4.0.0 ('The Stars were mine') сборка от Jun 6 2010 16:18:42
Библиотека кодирования : libebml v1.0.0 + libmatroska v1.0.0

Видео
Идентификатор : 1
Формат : AVC
Формат/Информация : Advanced Video Codec
Профиль формата : High@L4
Параметр CABAC формата : Да
Параметр ReFrames формата : 4 кадра
Идентификатор кодека : V_MPEG4/ISO/AVC
Продолжительность : 1 ч. 25 м.
Вид битрейта : Переменный
Битрейт : 10,3 Мбит/сек
Максимальный битрейт : 15,0 Мбит/сек
Ширина : 1920 пикселей
Высота : 1080 пикселей
Соотношение сторон : 16:9
Режим частоты кадров : Постоянный
Частота кадров : 23,976 (24000/1001) кадра/сек
Цветовое пространство : YUV
Субдискретизация насыщенности : 4:2:0
Битовая глубина : 8 бит
Тип развёртки : Прогрессивная
Бит/(Пиксели*Кадры) : 0.207
Размер потока : 6,15 Гбайт (93%)
Библиотека кодирования : x264 core 148 r2623 d5b2374
Настройки программы : cabac=1 / ref=4 / deblock=1:-1:-1 / analyse=0x3:0x133 / me=umh / subme=9 / psy=1 / psy_rd=1.00:0.15 / mixed_ref=1 / me_range=24 / chroma_me=1 / trellis=2 / 8x8dct=1 / cqm=0 / deadzone=21,11 / fast_pskip=1 / chroma_qp_offset=-3 / threads=34 / lookahead_threads=5 / sliced_threads=0 / nr=150 / decimate=1 / interlaced=0 / bluray_compat=0 / constrained_intra=0 / bframes=8 / b_pyramid=2 / b_adapt=2 / b_bias=0 / direct=3 / weightb=1 / open_gop=0 / weightp=2 / keyint=120 / keyint_min=61 / scenecut=0 / intra_refresh=0 / rc_lookahead=120 / rc=crf / mbtree=1 / crf=18.0 / qcomp=0.60 / qpmin=0 / qpmax=69 / qpstep=4 / vbv_maxrate=15000 / vbv_bufsize=31250 / crf_max=0.0 / nal_hrd=vbr / filler=0 / ip_ratio=1.40 / aq=3:1.00
Язык : English
Default : Нет
Forced : Нет
Цветовой диапазон : Limited
Основные цвета : BT.709
Характеристики трансфера : BT.709
Коэффициенты матрицы : BT.709

Аудио #1
Идентификатор : 2
Формат : AC-3
Формат/Информация : Audio Coding 3
Расширение режима : CM (complete main)
Параметр Endianness формата : Big
Идентификатор кодека : A_AC3
Продолжительность : 1 ч. 25 м.
Вид битрейта : Постоянный
Битрейт : 384 Кбит/сек
Каналы : 6 каналов
Расположение каналов : Front: L C R, Side: L R, LFE
Частота : 48,0 КГц
Частота кадров : 31,250 кадров/сек (1536 spf)
Метод сжатия : С потерями
Размер потока : 235 Мбайт (3%)
Заголовок : MVO R5 «Гемини-Фильм»
Язык : Russian
Default : Нет
Forced : Нет

Аудио #2
Идентификатор : 3
Формат : AC-3
Формат/Информация : Audio Coding 3
Расширение режима : CM (complete main)
Параметр Endianness формата : Big
Идентификатор кодека : A_AC3
Продолжительность : 1 ч. 25 м.
Вид битрейта : Постоянный
Битрейт : 224 Кбит/сек
Каналы : 2 канала
Расположение каналов : Front: L R
Частота : 48,0 КГц
Частота кадров : 31,250 кадров/сек (1536 spf)
Метод сжатия : С потерями
Размер потока : 137 Мбайт (2%)
Язык : English
Default : Нет
Forced : Нет

Текст #1
Идентификатор : 4
Формат : UTF-8
Идентификатор кодека : S_TEXT/UTF8
Идентификатор кодека/Информация : UTF-8 Plain Text
Язык : Russian
Default : Нет
Forced : Нет

Текст #2
Идентификатор : 5
Формат : UTF-8
Идентификатор кодека : S_TEXT/UTF8
Идентификатор кодека/Информация : UTF-8 Plain Text
Заголовок : SDH
Язык : English
Default : Нет
Forced : Нет


_________________
Проголосуй за трекер Открытый торрент трекер - RUS-MEDIA.ORG

Проголосуй Открытый торрент трекер - RUS-MEDIA.ORG



реклама партнёра


Вернуться к началу
 Профиль Отправить личное сообщение  
 
   Похожие торренты   Автор   Торрент   Размер 
В этой теме нет новых непрочитанных сообщений. Освободите Вилли / Free Willy [драма, приключения, семейный, 1993] BDRemux 1080р, Dub+Mvo+Dvo+Avo+Sub

salma3

9 | 10

25.92 ГБ

В этой теме нет новых непрочитанных сообщений. Освободите Вилли 2: Новое приключение / Free Willy 2: The Adventure Home [драма, приключения, семейный, 1995] WEB-DL 720p, Mvo+Sub

salma3

13 | 33

3.24 ГБ

В этой теме нет новых непрочитанных сообщений. Том и Джерри: Вилли Вонка и шоколадная фабрика / Tom and Jerry: Willy Wonka and the Chocolate Factory [мультфильм, мюзикл, комедия, 2017] WEB-DLRip, Mvo

salma3

705 | 42

1.45 ГБ

В этой теме нет новых непрочитанных сообщений. Поли / Paulie [драма, комедия, приключения, семейный, 1998] WEBRip 1080p, Dub+Mvo+Sub

salma3

16 | 43

8.06 ГБ

В этой теме нет новых непрочитанных сообщений. Младенец на прогулке / или Ползком от гангстеров / Baby's Day Out [драма, комедия, криминал, приключения, семейный, 1994] WEBRip 1080p, Mvo

salma3

100 | 62

8.23 ГБ

В этой теме нет новых непрочитанных сообщений. Нечего терять / Nothing to Lose [боевик, комедия, криминал, приключения, 1997] WEBRip 1080p, Dub+Mvo+Avo+Sub

salma3

79 | 44

9.98 ГБ

В этой теме нет новых непрочитанных сообщений. Из джунглей в джунгли / Jungle 2 Jungle [комедия, приключения, семейный, 1997] WEBRip 720p, Mvo+Sub

salma3

52 | 20

4.37 ГБ


Начать новую тему Ответить на тему  [ 1 сообщение ] 




Для Мосгорсуда, Роскомнадзора и рекламодателей:: mosgorsud-torrent[собачка]yandex.ru