Торрент файл
скачать торрент магнет ссылка Добавлен: 03 мар 2017, 10:31
Размер: 3.45 ГБ
Сидеров: 58
Личеров: 30
Статус: (salma3)
Автор

СообщениеДобавлено: 03 мар 2017, 10:31 

Не в сети
Супермодератор
Аватара пользователя
Дата регистрации:
15 фев 2012, 16:44
Возраст: 28
Спасибо: 7290 / 2147
Сообщения: 70475
Год выхода: 1967
Жанр: мелодрама, комедия
Режиссер: Джин Сэкс

В ролях: Роберт Редфорд, Джейн Фонда, Шарль Буайе, Милдред Нэтвик, Херб Эдельман, Мэйбл Альбертсон, Фриц Фельд, Джеймс Стоун, Тед Хартли, Билли Бёрд

О фильме:
Пол и Кори Брэттер живут в маленькой квартирке на пятом этаже в районе Гринвич Виллидж. Она считает, что у них милый домик, а он, консервативный юрист, ненавидит свое жилье.
Буайе, образец француза и ловеласа в глазах американцев, играет слегка чокнутого бабника, живущего этажом выше, которому приходится проходить через их квартиру, чтобы попасть в свою. Романтичной Кори нравится старый «казанова», и она устраивает ему знакомство со своей мамашей. Возникает много комичных и трогательных осложнений. Пол, например, отказывает предложению супруги пойти гулять босиком в Центральный парк, когда на улице всего 17 градусов и идет дождь. Но любовь, конечно, побеждает все…



Страна: США
Продолжительность: 01:46:01
Перевод: Профессиональный (Двухголосый закадровый) + Профессиональный (многоголосый, закадровый)

Файл
Кодек: MKV
Видео: 1280 x 720 at 23.976 fps, x264@L4.1, 3418 kbps [HDclub]
Аудио 1: Russian: 48 kHz, AC3, 2/0 (L,R) ch, ~192.00 kbps avg |Двухголосый закадровый, НТВ+|
Аудио 2: Russian: 48 kHz, AC3, 2/0 (L,R) ch, ~192.00 kbps avg |Многоголосый закадровый, Paramount Channel|
Аудио 3: Russian: 48 kHz, AC3, 2/0 (L,R) ch, ~192.00 kbps avg |Многоголосый закадровый, SomeWax|
Аудио 4: Russian: 48 kHz, AC3, 2/0 (L,R) ch, ~192.00 kbps avg |Многоголосый закадровый|
Аудио 5: English: 48 kHz, AC3, 2/0 (L,R) ch, ~192.00 kbps avg
Субтитры: Russian, English
General
Unique ID : 221815871906370733860318330295694518160 (0xA6E02ED81237AA8D9E3FE771EA2DE790)
Complete name : F:FILMSБосиком по парку. HDTVRIP. 720p. HDclub.mkv
Format : Matroska
Format version : Version 4 / Version 2
File size : 3.45 GiB
Duration : 1 h 46 min
Overall bit rate : 4 663 kb/s
Movie name : 1967-Barefoot.in.the.Park.HDTV.x264.720p
Encoded date : UTC 2017-03-02 12:19:03
Writing application : mkvmerge v6.6.0 ('The Edge Of The In Between') built on Dec 1 2013 17:55:00
Writing library : libebml v1.3.0 + libmatroska v1.4.1
Attachments : 600full-barefoot-in-the-park-poster.jpg / barefoot-in-the-park-1.jpg / Descalzos_por_el_parque-449112362-large.jpg
Video
ID : 1
Format : AVC
Format/Info : Advanced Video Codec
Format profile : High@L4.1
Format settings, CABAC : Yes
Format settings, ReFrames : 9 frames
Codec ID : V_MPEG4/ISO/AVC
Duration : 1 h 46 min
Bit rate : 3 418 kb/s
Width : 1 280 pixels
Height : 720 pixels
Display aspect ratio : 16:9
Frame rate mode : Constant
Frame rate : 23.976 (24000/1001) FPS
Color space : YUV
Chroma subsampling : 4:2:0
Bit depth : 8 bits
Scan type : Progressive
Bits/(Pixel*Frame) : 0.155
Stream size : 2.53 GiB (73%)
Writing library : x264 core 142 r2479kMod dd79a61
Encoding settings : cabac=1 / ref=9 / deblock=1:-3:-3 / analyse=0x3:0x133 / me=umh / subme=11 / psy=1 / fade_compensate=0.00 / psy_rd=0.95:0.00 / mixed_ref=1 / me_range=24 / chroma_me=1 / trellis=2 / 8x8dct=1 / cqm=0 / deadzone=21,11 / fast_pskip=0 / chroma_qp_offset=-2 / threads=6 / lookahead_threads=1 / sliced_threads=0 / nr=0 / decimate=0 / interlaced=0 / bluray_compat=0 / constrained_intra=0 / fgo=0 / bframes=8 / b_pyramid=2 / b_adapt=2 / b_bias=0 / direct=3 / weightb=1 / open_gop=0 / weightp=2 / keyint=250 / keyint_min=23 / scenecut=40 / intra_refresh=0 / rc=crf / mbtree=0 / crf=17.9000 / qcomp=0.65 / qpmin=0 / qpmax=69 / qpstep=4 / ip_ratio=1.40 / pb_ratio=1.30 / aq=1:1.00
Language : English
Default : No
Forced : No
Audio #1
ID : 2
Format : AC-3
Format/Info : Audio Coding 3
Mode extension : CM (complete main)
Format settings, Endianness : Big
Codec ID : A_AC3
Duration : 1 h 46 min
Bit rate mode : Constant
Bit rate : 192 kb/s
Channel(s) : 2 channels
Channel positions : Front: L R
Sampling rate : 48.0 kHz
Frame rate : 31.250 FPS (1536 spf)
Bit depth : 16 bits
Compression mode : Lossy
Stream size : 146 MiB (4%)
Title : AC-3 / 2.0 ch / 48 kHz / 16 bit / 192 kbps - DVO [HTB+].
Language : Russian
Default : Yes
Forced : No
Audio #2
ID : 3
Format : AC-3
Format/Info : Audio Coding 3
Mode extension : CM (complete main)
Format settings, Endianness : Big
Codec ID : A_AC3
Duration : 1 h 46 min
Bit rate mode : Constant
Bit rate : 192 kb/s
Channel(s) : 2 channels
Channel positions : Front: L R
Sampling rate : 48.0 kHz
Frame rate : 31.250 FPS (1536 spf)
Bit depth : 16 bits
Compression mode : Lossy
Stream size : 146 MiB (4%)
Title : AC-3 / 2.0 ch / 48 kHz / 16 bit / 192 kbps - MVO [Paramount Channel].
Language : Russian
Default : No
Forced : No
Audio #3
ID : 4
Format : AC-3
Format/Info : Audio Coding 3
Mode extension : CM (complete main)
Format settings, Endianness : Big
Codec ID : A_AC3
Duration : 1 h 46 min
Bit rate mode : Constant
Bit rate : 384 kb/s
Channel(s) : 2 channels
Channel positions : Front: L R
Sampling rate : 48.0 kHz
Frame rate : 31.250 FPS (1536 spf)
Bit depth : 16 bits
Compression mode : Lossy
Stream size : 291 MiB (8%)
Title : AC-3 / 2.0 ch / 48 kHz / 16 bit / 192 kbps - MVO [SomeWax].
Language : Russian
Default : No
Forced : No
Audio #4
ID : 5
Format : AC-3
Format/Info : Audio Coding 3
Mode extension : CM (complete main)
Format settings, Endianness : Big
Codec ID : A_AC3
Duration : 1 h 46 min
Bit rate mode : Constant
Bit rate : 192 kb/s
Channel(s) : 2 channels
Channel positions : Front: L R
Sampling rate : 48.0 kHz
Frame rate : 31.250 FPS (1536 spf)
Bit depth : 16 bits
Compression mode : Lossy
Stream size : 146 MiB (4%)
Title : AC-3 / 2.0 ch / 48 kHz / 16 bit / 192 kbps - MVO [?].
Language : Russian
Default : No
Forced : No
Audio #5
ID : 6
Format : AC-3
Format/Info : Audio Coding 3
Mode extension : CM (complete main)
Format settings, Endianness : Big
Codec ID : A_AC3
Duration : 1 h 46 min
Bit rate mode : Constant
Bit rate : 192 kb/s
Channel(s) : 2 channels
Channel positions : Front: L R
Sampling rate : 48.0 kHz
Frame rate : 31.250 FPS (1536 spf)
Bit depth : 16 bits
Compression mode : Lossy
Delay relative to video : 900 ms
Stream size : 146 MiB (4%)
Title : AC-3 / 2.0 ch / 48 kHz / 16 bit / 192 kbps - Original.
Language : English
Default : No
Forced : No
Text #1
ID : 7
Format : UTF-8
Codec ID : S_TEXT/UTF8
Codec ID/Info : UTF-8 Plain Text
Language : Russian
Default : No
Forced : No
Text #2
ID : 8
Format : UTF-8
Codec ID : S_TEXT/UTF8
Codec ID/Info : UTF-8 Plain Text
Language : English
Default : No
Forced : No
Menu
00:00:00.000 : en:Chapter 1
00:04:16.480 : en:Chapter 2
00:07:15.400 : en:Chapter 3
00:11:13.120 : en:Chapter 4
00:15:12.200 : en:Chapter 5
00:21:22.280 : en:Chapter 6
00:25:41.080 : en:Chapter 7
00:30:37.280 : en:Chapter 8
00:34:24.920 : en:Chapter 9
00:38:17.200 : en:Chapter 10
00:42:12.400 : en:Chapter 11
00:46:24.800 : en:Chapter 12
00:51:08.320 : en:Chapter 13
00:56:24.800 : en:Chapter 14
00:59:47.480 : en:Chapter 15
01:04:13.600 : en:Chapter 16
01:08:58.000 : en:Chapter 17
01:12:26.640 : en:Chapter 18
01:16:58.520 : en:Chapter 19
01:20:44.240 : en:Chapter 20
01:25:07.520 : en:Chapter 21
01:30:05.360 : en:Chapter 22
01:33:27.320 : en:Chapter 23
01:40:37.440 : en:Chapter 24


_________________
Проголосуй за трекер Открытый торрент трекер - RUS-MEDIA.ORG

Проголосуй Открытый торрент трекер - RUS-MEDIA.ORG


Вернуться к началу
 Профиль Отправить личное сообщение  
 
   Похожие торренты   Автор   Торрент   Размер 
В этой теме нет новых непрочитанных сообщений. Босиком по парку / Barefoot in the Park [мелодрама, комедия, 1967] WEB-DLRip-AVC, Dvo+Sub

salma3

0 | 0

2.75 ГБ

В этой теме нет новых непрочитанных сообщений. Укрощение строптивой / The Taming of the Shrew [драма, мелодрама, комедия, 1967] WEBRip 720p, Dub

salma3

47 | 10

5.67 ГБ

В этой теме нет новых непрочитанных сообщений. Южный Парк / South Park [19x01-10 из 10] (Трей Паркер, Мэтт Стоун, Эрик Сточ) [Комедия, Мультипликация, 2015] HDTVRip 720p [L0cDoG]

Dracon

146 | 288

4.1 ГБ

В этой теме нет новых непрочитанных сообщений. Южный парк / South Park [S20] ( Мультсериал, комедия, 2016) HDTVRip | IdeaFilm

marya111

48 | 47

2.89 ГБ

В этой теме нет новых непрочитанных сообщений. Южный парк / South Park [20x01-05 из 10] (Мультсериал, комедия, 2016) HDTVRip | IdeaFilm

marya111

5 | 2

1.45 ГБ

В этой теме нет новых непрочитанных сообщений. Южный парк / South Park [20x01-04 из 10] (Мультсериал, комедия, 2016) HDTVRip | IdeaFilm

marya111

0 | 0

1.16 ГБ

В этой теме нет новых непрочитанных сообщений. Южный парк / South Park [20x01-07 из 10] ( Мультсериал, комедия, 2016) HDTVRip | IdeaFilm

marya111

47 | 42

2.01 ГБ


Начать новую тему Ответить на тему  [ 1 сообщение ] 




Для Мосгорсуда, Роскомнадзора и рекламодателей:: mosgorsud-torrent[собачка]yandex.ru
cron