Торрент файл
скачать торрент магнет ссылка Добавлен: 02 мар 2017, 11:52
Размер: 3.63 ГБ
Сидеров: 171
Личеров: 73
Статус: (salma3)
Автор

СообщениеДобавлено: 02 мар 2017, 11:52 

Не в сети
Супермодератор
Аватара пользователя
Дата регистрации:
15 фев 2012, 16:44
Возраст: 28
Спасибо: 6642 / 2146
Сообщения: 45681
Год выпуска: 2015
Жанр: Комедия, мелодрама
Режиссер: Питер Салливан

В ролях: Катрина Ло, Аарон О’Коннелл, Донна Миллс, Алесандра Дарэм, Джилл Адлер, Майкл Бурхард, Лайла Уайт, Алисса Бакнер, ДжейДжей Ньюард

Описание:
Безработная художница Анна накануне Рождества остается совсем без средств к существованию. Она вынуждена принять предложение молодого бизнесмена Марка, который нанимает Анну в качестве помощницы по закупке подарков. Марку нужно купить 12 подарков на Рождество для своих близких, но времени самому ходить по магазинам и выбирать их, у него нет. Анна пытается подобрать каждому члену семьи Марка индивидуальный подарок. Марк, видя заботу Анны о его родных людях, проникается духом Рождества и добротой симпатичной художницы.



Страна: США
Продолжительность: ~01:23:21
Перевод: Любительский (многоголосый)

Файл
Формат: MKV
Качество: [HDTV 720p
Видео: MPEG-4 AVC, ~ 6000 Кбит/с, 1280x720
Аудио: 48 kHz, AC3 Dolby Digital, 2/0 (L,R) ch, ~192 kbps

ПРИСУТСТВУЕТ ЛОГОТИП РЕЛИЗ ГРУППЫ

Format : Matroska
Format version : Version 4 / Version 2
File size : 3.63 GiB
Duration : 1h 23mn
Overall bit rate : 6 201 Kbps
Encoded date : UTC 2017-03-01 21:24:12
Writing application : mkvmerge v6.0.0 ('Coming Up For Air') built on Jan 20 2013 09:52:00
Writing library : libebml v1.3.0 + libmatroska v1.4.0
Video
ID : 1
Format : AVC
Format/Info : Advanced Video Codec
Format profile : Main@L3.1
Format settings, CABAC : No
Format settings, ReFrames : 2 frames
Codec ID : V_MPEG4/ISO/AVC
Duration : 1h 23mn
Bit rate : 6 000 Kbps
Width : 1 280 pixels
Height : 720 pixels
Display aspect ratio : 16:9
Frame rate mode : Constant
Frame rate : 23.976 (23976/1000) fps
Color space : YUV
Chroma subsampling : 4:2:0
Bit depth : 8 bits
Scan type : Progressive
Bits/(Pixel*Frame) : 0.272
Stream size : 3.45 GiB (95%)
Writing library : x264 core 77
Encoding settings : cabac=0 / ref=1 / deblock=1:0:0 / analyse=0x1:0x11 / me=hex / subme=5 / psy=1 / psy_rd=0.0:0.0 / mixed_ref=0 / me_range=16 / chroma_me=1 / trellis=0 / 8x8dct=0 / cqm=0 / deadzone=21,11 / chroma_qp_offset=0 / threads=2 / nr=0 / decimate=1 / mbaff=0 / constrained_intra=0 / bframes=2 / b_pyramid=0 / b_adapt=1 / b_bias=0 / direct=1 / wpredb=0 / keyint=12 / keyint_min=7 / scenecut=40 / rc_lookahead=12 / rc=abr / mbtree=1 / bitrate=6000 / ratetol=1.0 / qcomp=0.60 / qpmin=10 / qpmax=51 / qpstep=4 / ip_ratio=1.41 / aq=1:1.00
Language : English
Default : Yes
Forced : No
Audio
ID : 2
Format : AC-3
Format/Info : Audio Coding 3
Mode extension : CM (complete main)
Format settings, Endianness : Big
Codec ID : A_AC3
Duration : 1h 23mn
Bit rate mode : Constant
Bit rate : 192 Kbps
Channel(s) : 2 channels
Channel positions : Front: L R
Sampling rate : 48.0 KHz
Frame rate : 31.250 fps (1536 spf)
Compression mode : Lossy
Stream size : 115 MiB (3%)
Default : Yes
Forced : No
[screens/]


_________________
Проголосуй за трекер Открытый торрент трекер - RUS-MEDIA.ORG

Проголосуй Открытый торрент трекер - RUS-MEDIA.ORG



реклама партнёра


Вернуться к началу
 Профиль Отправить личное сообщение  
 
   Похожие торренты   Автор   Торрент   Размер 
В этой теме нет новых непрочитанных сообщений. 12 подарков на Рождество / 12 Gifts of Christmas [Комедия, мелодрама, 2015] HDTVRip, Mvo

salma3

166 | 30

1018.74 МБ

В этой теме нет новых непрочитанных сообщений. Как раз под Рождество / Just in Time for Christmas [Комедия, мелодрама, 2015] WEB-DL 720p, Mvo [iTunes]

salma3

642 | 168

3.27 ГБ

В этой теме нет новых непрочитанных сообщений. Как раз под Рождество / Just in Time for Christmas [Комедия, мелодрама, 2015] WEB-DLRip, Mvo [iTunes]

salma3

1440 | 116

1.46 ГБ

В этой теме нет новых непрочитанных сообщений. Как раз под Рождество / Just in Time for Christmas [Комедия, мелодрама, 2015] WEB-DLRip, Mvo [iTunes]

salma3

152 | 13

743.67 МБ

В этой теме нет новых непрочитанных сообщений. Корона на Рождество / Crown for Christmas [Комедия, мелодрама, семейный, 2015] WEB-DLRip, Mvo [iTunes]

salma3

27 | 9

744.4 МБ

В этой теме нет новых непрочитанных сообщений. Худшее Рождество Сердитой кошки / Grumpy Cat's Worst Christmas Ever [Комедия, мелодрама, семейный, 2014] HDTVRip., Avo

salma3

201 | 195

2.5 ГБ

В этой теме нет новых непрочитанных сообщений. Помолвка на Рождество / Engaging Father Christmas [мелодрама, 2017] HDTVRip, Mvo

salma3

61 | 13

1.37 ГБ


Начать новую тему Ответить на тему  [ 1 сообщение ] 




Для Мосгорсуда, Роскомнадзора и рекламодателей:: mosgorsud-torrent[собачка]yandex.ru