Торрент файл
скачать торрент магнет ссылка Добавлен: 01 мар 2017, 12:27
Размер: 11.14 ГБ
Сидеров: 540
Личеров: 271
Статус: (salma3)
Автор

СообщениеДобавлено: 01 мар 2017, 12:27 

В сети
Супермодератор
Аватара пользователя
Дата регистрации:
15 фев 2012, 16:44
Возраст: 28
Спасибо: 6593 / 2145
Сообщения: 44208
Год выхода: 2016
Жанр: Драма
Режиссер: Барри Дженкинс

В ролях: Махершала Али, Шарифф Эрп, Дун Сэндерсон, Алекс Р. Хибберт, Жанель Монэ, Наоми Харрис, Джейден Пайнер, Херман 'Кахеей МакГлаун, Камал Ани-Беллоу, Кеоми Гивенс

О фильме:
Киноповесть в трех частях о жизни афроамериканца Широна: ребенка, подростка и взрослого мужчины, живущего в Майами в период расцвета наркоторговли. Переживая семейный крах и конфликты со сверстниками, взрослеющий Широн пребывает в мучительном поиске и принятии самого себя.



Страна: США
Продолжительность: 01:50:41
Перевод: Профессиональный многоголосый (закадровый)[Официальный звук]

Файл
Качество: BDRip 1080p
Видео: MPEG-4 AVC, 1920x804, 12.7 Mbit/s, 23.976 fps
Звук:
Аудио #01: 48 kHz, AC3, 2.0, 192 Kbps | Профессиональный многоголосый|
Аудио #02: 48 kHz, DTS, 5.1, 1510 kbps | Оригинал

General
Unique ID : 239486301132919826567870550743439357488 (0xB42B6244CBC377BF8A90036FD363B630)
Complete name : G:VideoMoonlight.2016.MVO.BDRip.1080p.ExKinoRay.mkv
Format : Matroska
Format version : Version 4 / Version 2
File size : 11.1 GiB
Duration : 1 h 50 min
Overall bit rate : 14.4 Mb/s
Encoded date : UTC 2017-02-28 19:42:28
Writing application : mkvmerge v8.3.0 ('Over the Horizon') 64bit
Writing library : libebml v1.3.1 + libmatroska v1.4.2
Video
ID : 1
Format : AVC
Format/Info : Advanced Video Codec
Format profile : High@L4.1
Format settings, CABAC : Yes
Format settings, ReFrames : 5 frames
Codec ID : V_MPEG4/ISO/AVC
Duration : 1 h 50 min
Bit rate : 12.7 Mb/s
Width : 1 920 pixels
Height : 804 pixels
Display aspect ratio : 2.40:1
Frame rate mode : Constant
Frame rate : 23.976 (24000/1001) FPS
Color space : YUV
Chroma subsampling : 4:2:0
Bit depth : 8 bits
Scan type : Progressive
Bits/(Pixel*Frame) : 0.343
Stream size : 9.82 GiB (88%)
Writing library : x264 core 129 r2245 bc13772
Encoding settings : cabac=1 / ref=5 / deblock=1:-3:-3 / analyse=0x3:0x133 / me=umh / subme=11 / psy=1 / psy_rd=1.05:0.05 / mixed_ref=1 / me_range=64 / chroma_me=1 / trellis=2 / 8x8dct=1 / cqm=0 / deadzone=21,11 / fast_pskip=0 / chroma_qp_offset=-3 / threads=12 / lookahead_threads=2 / sliced_threads=0 / nr=0 / decimate=1 / interlaced=0 / bluray_compat=0 / constrained_intra=0 / bframes=8 / b_pyramid=2 / b_adapt=2 / b_bias=0 / direct=3 / weightb=1 / open_gop=0 / weightp=2 / keyint=250 / keyint_min=23 / scenecut=40 / intra_refresh=0 / rc_lookahead=60 / rc=2pass / mbtree=1 / bitrate=12681 / ratetol=1.0 / qcomp=0.60 / qpmin=0 / qpmax=69 / qpstep=4 / cplxblur=20.0 / qblur=0.5 / vbv_maxrate=40000 / vbv_bufsize=30000 / nal_hrd=none / ip_ratio=1.40 / aq=1:0.80
Language : English
Default : Yes
Forced : No
Audio #1
ID : 2
Format : AC-3
Format/Info : Audio Coding 3
Mode extension : CM (complete main)
Format settings, Endianness : Big
Codec ID : A_AC3
Duration : 1 h 50 min
Bit rate mode : Constant
Bit rate : 192 kb/s
Channel(s) : 2 channels
Channel positions : Front: L R
Sampling rate : 48.0 kHz
Frame rate : 31.250 FPS (1536 spf)
Bit depth : 16 bits
Compression mode : Lossy
Stream size : 152 MiB (1%)
Title : MVO
Language : Russian
Default : Yes
Forced : No
Audio #2
ID : 3
Format : DTS
Format/Info : Digital Theater Systems
Mode : 16
Format settings, Endianness : Big
Codec ID : A_DTS
Duration : 1 h 50 min
Bit rate mode : Constant
Bit rate : 1 509 kb/s
Channel(s) : 6 channels
Channel positions : Front: L C R, Side: L R, LFE
Sampling rate : 48.0 kHz
Frame rate : 93.750 FPS (512 spf)
Bit depth : 24 bits
Compression mode : Lossy
Stream size : 1.17 GiB (10%)
Title : Original
Language : English
Default : No
Forced : No
Text
ID : 4
Format : UTF-8
Codec ID : S_TEXT/UTF8
Codec ID/Info : UTF-8 Plain Text
Duration : 1 h 44 min
Bit rate : 53 b/s
Count of elements : 1033
Stream size : 40.4 KiB (0%)
Title : Full
Language : Russian
Default : No
Forced : No
Menu
00:00:00.000 : en:00:00:00.000
00:04:34.566 : en:00:04:34.566
00:10:16.825 : en:00:10:16.825
00:18:32.153 : en:00:18:32.153
00:24:37.017 : en:00:24:37.017
00:31:40.482 : en:00:31:40.482
00:38:33.811 : en:00:38:33.811
00:43:16.135 : en:00:43:16.135
00:48:24.527 : en:00:48:24.527
00:55:34.498 : en:00:55:34.498
01:05:04.359 : en:01:05:04.359
01:12:38.437 : en:01:12:38.437
01:22:14.346 : en:01:22:14.346
01:28:28.637 : en:01:28:28.637
01:35:00.904 : en:01:35:00.904
01:45:06.509 : en:01:45:06.509

Релиз от: Автор релиза:


_________________
Проголосуй за трекер Открытый торрент трекер - RUS-MEDIA.ORG

Проголосуй Открытый торрент трекер - RUS-MEDIA.ORG



реклама партнёра


Вернуться к началу
 Профиль Отправить личное сообщение  
 
   Похожие торренты   Автор   Торрент   Размер 
В этой теме нет новых непрочитанных сообщений. Лунный свет / Moonlight [Драма, 2016] BDRip 720p, Mvo+Sub [Официальный звук]

salma3

822 | 390

6.29 ГБ

В этой теме нет новых непрочитанных сообщений. Лунный свет / Moonlight [драма, 2016] BDRip, Mvo [Line]

salma3

473 | 182

1.46 ГБ

В этой теме нет новых непрочитанных сообщений. Наши любовники / Nuestros amantes [Мелодрама, драма, комедия, 2016] BDRip 1080p, Mvo [ Официальный звук]

salma3

74 | 34

5.78 ГБ

В этой теме нет новых непрочитанных сообщений. Отступление / Backtrack [ужасы, триллер, драма, 2015] BDRip 1080p, Dub [официальный звук]

salma3

531 | 109

5.18 ГБ

В этой теме нет новых непрочитанных сообщений. Достоинство / The Timber [Драма, приключения, вестерн, 2015] BDRip 1080p, Mvo [Официальный звук]

salma3

403 | 131

5.87 ГБ

В этой теме нет новых непрочитанных сообщений. Наши любовники / Nuestros amantes [Мелодрама, драма, комедия, 2016] BDRip 720p, Mvo [Официальный звук]

salma3

88 | 2

2.94 ГБ

В этой теме нет новых непрочитанных сообщений. Наш бренд – кризис / Our Brand Is Crisis [драма, комедия, 2015] BDRip 1080p, Mvo [официальный звук]

salma3

97 | 40

8.3 ГБ


Начать новую тему Ответить на тему  [ 1 сообщение ] 




Для Мосгорсуда, Роскомнадзора и рекламодателей:: mosgorsud-torrent[собачка]yandex.ru