Торрент файл
скачать торрент магнет ссылка Добавлен: 28 фев 2017, 21:47
Размер: 3.99 ГБ
Сидеров: 40
Личеров: 12
Статус: (salma3)
Автор

СообщениеДобавлено: 28 фев 2017, 21:47 

Не в сети
Супермодератор
Аватара пользователя
Дата регистрации:
15 фев 2012, 16:44
Возраст: 28
Спасибо: 7226 / 2147
Сообщения: 68270
Год выпуска: 2004
Жанр: фантастика, боевик, триллер
Режиссер: Керри Конран

В ролях: Гвинет Пэлтроу, Джуд Лоу, Джованни Рибизи, Майкл Гэмбон, Бай Лин, Омид Джалили, Лоуренс Оливье, Анджелина Джоли, Тревор Бэкстер, Джулиан Карри

Описание:
Действие разворачивается в Нью-Йорке 1939 года. Молодая журналистка узнает о том, что всемирно известные ученые пропадают при невыясненных обстоятельствах. Объединившись с опытным пилотом и искателем приключений, она пытается нарушить планы сумасшедшего, стремящегося завладеть миром…



Страна: США, Великобритания, Италия
Продолжительность: 01:46:36
Перевод: Профессиональный (полное дублирование)
Субтитры: Русские, английские

Формат: BDRip 720p
Видео: 1280x720p (16:9), 23.976 fps, AVC MPEG-4 (H.264), ~4462 kbps, 0.202 bit/pixel
Аудио 1: Русский: 48 kHz, AC3 Dolby Digital, 6 ch, ~448 kbps
Аудио 2: Английский: 48 kHz, AC3 Dolby Digital, 6 ch, ~448 kbps

Format : Matroska
Format version : Version 2
File size : 3.99 GiB
Duration : 1h 46mn
Overall bit rate : 5 359 Kbps
Movie name : = Небесный капитан и мир будущего / Sky Captain and the World of Tomorrow BDRip 720p by SC Kosmos =
Encoded date : UTC 2015-12-22 15:12:16
Writing application : mkvmerge v3.3.0 ('Language') gebaut am Mar 24 2010 14:59:24
Writing library : libebml v0.8.0 + libmatroska v0.9.0
Attachment : Yes

Video
ID : 1
Format : AVC
Format/Info : Advanced Video Codec
Format profile :
Format settings, CABAC : Yes
Format settings, ReFrames : 9 frames
Codec ID : V_MPEG4/ISO/AVC
Duration : 1h 46mn
Bit rate : 4 462 Kbps
Width : 1 280 pixels
Height : 720 pixels
Display aspect ratio : 16:9
Frame rate : 23.976 fps
Color space : YUV
Chroma subsampling : 4:2:0
Bit depth : 8 bits
Scan type : Progressive
Bits/(Pixel*Frame) : 0.202
Stream size : 3.24 GiB (81%)
Title : Небесный капитан и мир будущего / Sky Captain and the World of Tomorrow BDRip 720p by SC Kosmos
Writing library : x264 core 146 r2538 121396c
Encoding settings : cabac=1 / ref=9 / deblock=1:-3:-3 / analyse=0x3:0x113 / me=umh / subme=11 / psy=1 / psy_rd=1.00:0.00 / mixed_ref=1 / me_range=32 / chroma_me=1 / trellis=2 / 8x8dct=1 / cqm=0 / deadzone=21,11 / fast_pskip=0 / chroma_qp_offset=-2 / threads=12 / lookahead_threads=3 / sliced_threads=0 / nr=0 / decimate=1 / interlaced=0 / bluray_compat=0 / constrained_intra=0 / bframes=10 / b_pyramid=2 / b_adapt=2 / b_bias=0 / direct=3 / weightb=1 / open_gop=0 / weightp=2 / keyint=240 / keyint_min=23 / scenecut=40 / intra_refresh=0 / rc_lookahead=50 / rc=2pass / mbtree=0 / bitrate=4462 / ratetol=1.0 / qcomp=0.60 / qpmin=0 / qpmax=69 / qpstep=4 / cplxblur=20.0 / qblur=0.5 / vbv_maxrate=62500 / vbv_bufsize=78125 / nal_hrd=none / filler=0 / ip_ratio=1.40 / pb_ratio=1.30 / aq=1:1.00 / zones=140146,153359,b=0.3
Language : English
Default : No
Forced : No

Audio #1
ID : 2
Format : AC-3
Format/Info : Audio Coding 3
Mode extension : CM (complete main)
Codec ID : A_AC3
Duration : 1h 46mn
Bit rate mode : Constant
Bit rate : 448 Kbps
Channel(s) : 6 channels
Channel positions : Front: L C R, Side: L R, LFE
Sampling rate : 48.0 KHz
Bit depth : 16 bits
Compression mode : Lossy
Stream size : 342 MiB (8%)
Title : Дубляж
Language : Russian
Default : Yes
Forced : Yes

Audio #2
ID : 3
Format : AC-3
Format/Info : Audio Coding 3
Mode extension : CM (complete main)
Codec ID : A_AC3
Duration : 1h 46mn
Bit rate mode : Constant
Bit rate : 448 Kbps
Channel(s) : 6 channels
Channel positions : Front: L C R, Side: L R, LFE
Sampling rate : 48.0 KHz
Bit depth : 16 bits
Compression mode : Lossy
Stream size : 342 MiB (8%)
Language : English
Default : No
Forced : No

Text #1
ID : 4
Format : UTF-8
Codec ID : S_TEXT/UTF8
Codec ID/Info : UTF-8 Plain Text
Language : Russian
Default : No
Forced : No

Text #2
ID : 5
Format : UTF-8
Codec ID : S_TEXT/UTF8
Codec ID/Info : UTF-8 Plain Text
Language : English
Default : No
Forced : No

Menu
00:00:00.000 : en:00:00:00.000
00:06:02.862 : en:00:06:02.862
00:11:26.853 : en:00:11:26.853
00:16:46.756 : en:00:16:46.756
00:23:47.676 : en:00:23:47.676
00:28:08.520 : en:00:28:08.520
00:36:46.454 : en:00:36:46.454
00:41:03.378 : en:00:41:03.378
00:46:12.269 : en:00:46:12.269
00:53:27.204 : en:00:53:27.204
01:01:33.106 : en:01:01:33.106
01:06:03.960 : en:01:06:03.960
01:12:37.937 : en:01:12:37.937
01:17:54.837 : en:01:17:54.837
01:24:51.753 : en:01:24:51.753
01:31:05.627 : en:01:31:05.627
01:36:00.505 : en:01:36:00.505





_________________
Проголосуй за трекер Открытый торрент трекер - RUS-MEDIA.ORG

Проголосуй Открытый торрент трекер - RUS-MEDIA.ORG


Вернуться к началу
 Профиль Отправить личное сообщение  
 
   Похожие торренты   Автор   Торрент   Размер 
В этой теме нет новых непрочитанных сообщений. Капитан Подштанник: Первый эпический фильм / Captain Underpants: The First Epic Movie [мультфильм, боевик, комедия, семейный, 2017] BDRip 720p, Mvo [Лицензия]

salma3

0 | 0

4.38 ГБ

В этой теме нет новых непрочитанных сообщений. Человек из будущего / The Tomorrow Man [фантастика, боевик, 2002] DVDRip, Mvo

salma3

19 | 4

1.45 ГБ

В этой теме нет новых непрочитанных сообщений. Грань будущего / Edge of Tomorrow [Фантастика, боевик, 2014] BDRemux 1080p, Dvo+Sub

salma3

0 | 0

45.92 ГБ

В этой теме нет новых непрочитанных сообщений. Первый мститель: Противостояние / Captain America: Civil War [фантастика, боевик, триллер, приключения, 2016] BDRip 720p, Dub [iTunes]

marya111

2 | 4

6.05 ГБ

В этой теме нет новых непрочитанных сообщений. Капитан Подштанник: Первый эпический фильм / Captain Underpants: The First Epic Movie [мультфильм, боевик, комедия, семейный, 2017] BDRip, Mvo [Лицензия]

salma3

0 | 0

1.46 ГБ

В этой теме нет новых непрочитанных сообщений. Капитан Подштанник: Первый эпический фильм / Captain Underpants: The First Epic Movie [мультфильм, боевик, комедия, 2017] BDRip 1080p, Mvo [Лицензия]

salma3

77 | 27

8.03 ГБ

В этой теме нет новых непрочитанных сообщений. Капитан Рон / Captain Ron [комедия, приключения, семейный, 1992] WEB-DL 720p, Mvo+Dvo+Avo+Sub

salma3

24 | 8

3.89 ГБ


Начать новую тему Ответить на тему  [ 1 сообщение ] 




Для Мосгорсуда, Роскомнадзора и рекламодателей:: mosgorsud-torrent[собачка]yandex.ru
cron