Торрент файл
скачать торрент магнет ссылка Добавлен: 26 фев 2017, 22:12
Размер: 9.19 ГБ
Сидеров: 59
Личеров: 75
Статус: (salma3)
Автор

СообщениеДобавлено: 26 фев 2017, 22:12 

В сети
Супермодератор
Аватара пользователя
Дата регистрации:
15 фев 2012, 16:44
Возраст: 28
Спасибо: 7057 / 2147
Сообщения: 58549
Год выхода: 2004
Жанр: ужасы, фантастика
Режиссер: Брэд Тернер

В ролях: Робин Данн, Роберт Неппер, Санни Мабри, Амелия Кук, Джон Пол Питок, Майкл Уоррен, Кристофер Ним, Патрисия Бетун, Джоэль Штоффер, Джеймс Лео Райан, ...

О фильме: Сара — уже третье поколение получеловеческого-полуинопланетного существа. Это почти совершенная особь, которая была возрождена ренегатом — профессором биохимии Абботом. Жестокая в своих поисках партнера для размножения, Сара обладает удивительной физической силой и способностью преобразовывать свое тело в различные агрессивные формы, выбрасывать щупальца, когти. Вскоре Сара обнаруживает, что ее преследуют еще две особи, с таким же ДНК, как у нее…


Страна: США
Продолжительность: 01:51:58
Перевод1: Профессиональный (двухголосый, закадровый) [НТВ+]
Перевод2: Профессиональный (двухголосый, закадровый) [SDI Media]
Перевод3: Авторский (одноголосый, закадровый)[ Визгунов Сергей]

Кодек: x264
Качество: BDRip 1080p
Видео: 1920x1080, 9662 kbps, 23,976 fps
Аудио #1: AC-3, 2 ch, 192 kbps (Rus) - DVO НТВ+
Аудио #2: AC-3, 2 ch, 192 kbps (Rus) - DVO SDI Media
Аудио #3: AC-3, 2 ch, 192 kbps (Rus) - AVO Визгунов Сергей
Аудио #4: DTS, 6 ch, 1509 kbps (Eng)
Субтитры: русские, английские

Общее
Уникальный идентификатор : 219197587081986359959461368003909129963 (0xA4E7EB6F7BEF1A73B919BF42D3B816EB)
Полное имя : C:TorrentОсобь 3 (Species III) 2004 BDRip 1080p.mkv
Формат : Matroska
Версия формата : Version 2
Размер файла : 9,19 Гбайт
Продолжительность : 1 ч. 51 м.
Общий поток : 11,7 Мбит/сек
Дата кодирования : UTC 2017-02-25 22:46:27
Программа кодирования : mkvmerge v4.0.0 ('The Stars were mine') сборка от Jun 6 2010 16:18:42
Библиотека кодирования : libebml v1.0.0 + libmatroska v1.0.0

Видео
Идентификатор : 1
Формат : AVC
Формат/Информация : Advanced Video Codec
Профиль формата : High@L4.1
Параметр CABAC формата : Да
Параметр ReFrames формата : 4 кадра
Идентификатор кодека : V_MPEG4/ISO/AVC
Продолжительность : 1 ч. 51 м.
Битрейт : 9662 Кбит/сек
Ширина : 1920 пикселей
Высота : 1080 пикселей
Соотношение сторон : 16:9
Режим частоты кадров : Постоянный
Частота кадров : 23,976 (24000/1001) кадра/сек
Цветовое пространство : YUV
Субдискретизация насыщенности : 4:2:0
Битовая глубина : 8 бит
Тип развёртки : Прогрессивная
Бит/(Пиксели*Кадры) : 0.194
Размер потока : 7,37 Гбайт (80%)
Библиотека кодирования : x264 core 148 r2665 a01e339
Настройки программы : cabac=1 / ref=4 / deblock=1:-3:-3 / analyse=0x3:0x113 / me=umh / subme=8 / psy=1 / psy_rd=1.00:0.25 / mixed_ref=1 / me_range=24 / chroma_me=1 / trellis=1 / 8x8dct=1 / cqm=0 / deadzone=21,11 / fast_pskip=1 / chroma_qp_offset=-4 / threads=12 / lookahead_threads=2 / sliced_threads=0 / nr=0 / decimate=1 / interlaced=0 / bluray_compat=0 / constrained_intra=0 / bframes=3 / b_pyramid=2 / b_adapt=2 / b_bias=0 / direct=3 / weightb=1 / open_gop=0 / weightp=2 / keyint=240 / keyint_min=24 / scenecut=40 / intra_refresh=0 / rc_lookahead=50 / rc=2pass / mbtree=1 / bitrate=9662 / ratetol=1.0 / qcomp=0.60 / qpmin=0 / qpmax=69 / qpstep=4 / cplxblur=20.0 / qblur=0.5 / vbv_maxrate=62500 / vbv_bufsize=78125 / nal_hrd=none / filler=0 / ip_ratio=1.40 / aq=1:0.50
Язык : English
Default : Нет
Forced : Нет

Аудио #1
Идентификатор : 2
Формат : AC-3
Формат/Информация : Audio Coding 3
Расширение режима : CM (complete main)
Параметр Endianness формата : Big
Идентификатор кодека : A_AC3
Продолжительность : 1 ч. 51 м.
Вид битрейта : Постоянный
Битрейт : 192 Кбит/сек
Каналы : 2 канала
Расположение каналов : Front: L R
Частота : 48,0 КГц
Частота кадров : 31,250 кадров/сек (1536 spf)
Метод сжатия : С потерями
Размер потока : 154 Мбайт (2%)
Заголовок : DVO НТВ+
Язык : Russian
Default : Нет
Forced : Нет

Аудио #2
Идентификатор : 3
Формат : AC-3
Формат/Информация : Audio Coding 3
Расширение режима : CM (complete main)
Параметр Endianness формата : Big
Идентификатор кодека : A_AC3
Продолжительность : 1 ч. 51 м.
Вид битрейта : Постоянный
Битрейт : 192 Кбит/сек
Каналы : 2 канала
Расположение каналов : Front: L R
Частота : 48,0 КГц
Частота кадров : 31,250 кадров/сек (1536 spf)
Метод сжатия : С потерями
Размер потока : 154 Мбайт (2%)
Заголовок : DVO SDI Media
Язык : Russian
Default : Нет
Forced : Нет

Аудио #3
Идентификатор : 4
Формат : AC-3
Формат/Информация : Audio Coding 3
Расширение режима : CM (complete main)
Параметр Endianness формата : Big
Идентификатор кодека : A_AC3
Продолжительность : 1 ч. 51 м.
Вид битрейта : Постоянный
Битрейт : 192 Кбит/сек
Каналы : 2 канала
Расположение каналов : Front: L R
Частота : 48,0 КГц
Частота кадров : 31,250 кадров/сек (1536 spf)
Метод сжатия : С потерями
Размер потока : 154 Мбайт (2%)
Заголовок : AVO Визгунов Сергей
Язык : Russian
Default : Нет
Forced : Нет

Аудио #4
Идентификатор : 5
Формат : DTS
Формат/Информация : Digital Theater Systems
Режим : 16
Параметр Endianness формата : Big
Идентификатор кодека : A_DTS
Продолжительность : 1 ч. 51 м.
Вид битрейта : Постоянный
Битрейт : 1509 Кбит/сек
Каналы : 6 каналов
Расположение каналов : Front: L C R, Side: L R, LFE
Частота : 48,0 КГц
Частота кадров : 93,750 кадра/сек (512 spf)
Битовая глубина : 24 бит
Метод сжатия : С потерями
Задержка видео : 11 мс.
Размер потока : 1,18 Гбайт (13%)
Язык : English
Default : Нет
Forced : Нет

Текст #1
Идентификатор : 6
Формат : UTF-8
Идентификатор кодека : S_TEXT/UTF8
Идентификатор кодека/Информация : UTF-8 Plain Text
Язык : Russian
Default : Нет
Forced : Нет

Текст #2
Идентификатор : 7
Формат : UTF-8
Идентификатор кодека : S_TEXT/UTF8
Идентификатор кодека/Информация : UTF-8 Plain Text
Язык : English
Default : Нет
Forced : Нет


_________________
Проголосуй за трекер Открытый торрент трекер - RUS-MEDIA.ORG

Проголосуй Открытый торрент трекер - RUS-MEDIA.ORG


Вернуться к началу
 Профиль Отправить личное сообщение  
 
   Похожие торренты   Автор   Торрент   Размер 
В этой теме нет новых непрочитанных сообщений. Особь: Пробуждение / Species: The Awakening [ужасы, фантастика, 2007] BDRip 1080p, Dvo

salma3

65 | 127

9.37 ГБ

В этой теме нет новых непрочитанных сообщений. Особь 2 / Species II [Ужасы, фантастика, 1998] BDRip, Mvo+Avo

salma3

95 | 20

1.46 ГБ

В этой теме нет новых непрочитанных сообщений. Особь 2 / Species II [ужасы, фантастика, 1998] BDRemux 1080p, Avo+Mvo+Dvo+Sub

salma3

10 | 17

27.23 ГБ

В этой теме нет новых непрочитанных сообщений. Особь 4: Пробуждение / Species: The Awakening [ужасы, фантастика, 2007] BDRip, Dvo

salma3

89 | 15

1.45 ГБ

В этой теме нет новых непрочитанных сообщений. Особь / Species [ужасы, фантастика, боевик, триллер, 1995] BDRip 720p, Dub, Dvo+Avo+Sub

salma3

18 | 5

5.94 ГБ

В этой теме нет новых непрочитанных сообщений. Особь / Species [ужасы, фантастика, боевик, 1995] HDRip-AVC, Dub

salma3

68 | 24

746.14 МБ

В этой теме нет новых непрочитанных сообщений. Генетическая особь / Deep Evil [ужасы, фантастика, 2004] DVDRip, Avo [Визгунов]

salma3

47 | 18

1.37 ГБ


Начать новую тему Ответить на тему  [ 1 сообщение ] 




Для Мосгорсуда, Роскомнадзора и рекламодателей:: mosgorsud-torrent[собачка]yandex.ru
cron