Торрент файл
скачать торрент магнет ссылка Добавлен: 26 фев 2017, 17:03
Размер: 7.84 ГБ
Сидеров: 8
Личеров: 19
Статус: (salma3)
Автор

СообщениеДобавлено: 26 фев 2017, 17:03 

Не в сети
Супермодератор
Аватара пользователя
Дата регистрации:
15 фев 2012, 16:44
Возраст: 29
Спасибо: 7379 / 2147
Сообщения: 76077
Год выпуска: 2004
Жанр: драма, военный, история
Режиссер: Терри Джордж

В ролях: Дон Чидл, Софи Оконедо, Ник Нолти, Кэра Сеймур, Хоакин Феникс, Жан Рено, Колани Мали, Десмонд Дюбэ, Хаким Кае-Казим, Тони Кгороге

Описание:
Сюжет фильма основан на реальных событиях середины 90-х годов прошлого века, когда народ хуту, составлявшее в Руанде этническое большинство, устроило в стране кровавую резню, уничтожив более миллиона (!) человек, принадлежавших народу тутси.
Главный герой фильма по имени Пол — управляющий престижного отеля в столице Руанды, в котором от убийц укрылись несколько сотен человек. Пол делает все от него зависящее, чтобы их спасти. Ситуация осложняется тем, что жена Пола также принадлежит народу тутси. У Пола большие связи, он не гнушается ни подкупом, ни шантажом; он угрожает, умоляет, льстит… И спасает от гибели 1268 человек.



Страна: Великобритания, ЮАР, Италия
Продолжительность: 02:01:51
Перевод: Профессиональный (многоголосый, закадровый)
Субтитры: Русские, украинские, английские

Формат: BDRip 720p
Видео: 1280x544p (2.35:1), 23.976 fps, AVC MPEG-4 (H.264), ~7000 kbps, 0.419 bit/pixel
Аудио1: Русский: 48 kHz, AC3 Dolby Digital, 6 ch, ~448
Аудио2: Английский: 48 kHz, DTS, 6 ch, ~1509 kbps [Оригинал]
Аудио3: Английский: 48 kHz, AC3 Dolby Digital, 2 ch, ~256 kbps

Общее
Уникальный идентификатор : 213552255605434741022905542573647802423 (0xA0A8AB1AB3C83F3A804BF05B08FD3037)
Полное имя : Z:\Hotel.Rwanda.2004.720p.BluRay.Rus.Eng.HDCLUB.mkv
Формат : Matroska
Версия формата : Version 2
Размер файла : 7,84 Гбайт
Продолжительность : 2 ч. 1 м.
Общий поток : 9208 Кбит/сек
Название фильма : Hotel Rwanda (2004) - Release for HDCLUB
Дата кодирования : UTC 2010-12-27 21:37:24
Программа кодирования : mkvmerge v4.4.0 ('Die Wiederkehr') сборка от Oct 31 2010 21:52:48
Библиотека кодирования : libebml v1.0.0 + libmatroska v1.0.0

Видео
Идентификатор : 1
Формат : AVC
Формат/Информация : Advanced Video Codec
Профиль формата :
Параметр CABAC формата : Да
Параметр ReFrames формата : 7 кадров
Идентификатор кодека : V_MPEG4/ISO/AVC
Продолжительность : 2 ч. 1 м.
Битрейт : 7000 Кбит/сек
Ширина : 1280 пикселей
Высота : 544 пикселя
Соотношение сторон : 2,35:1
Режим частоты кадров : Постоянный
Частота кадров : 23,976 (24000/1001) кадра/сек
Цветовое пространство : YUV
Субдискретизация насыщенности : 4:2:0
Битовая глубина : 8 бит
Тип развёртки : Прогрессивная
Бит/(Пиксели*Кадры) : 0.419
Размер потока : 5,80 Гбайт (74%)
Заголовок : Hotel Rwanda (2004) - Release for HDCLUB
Библиотека кодирования : x264 core 112 r1834 a51816a
Настройки программы : cabac=1 / ref=7 / deblock=1:-3:-3 / analyse=0x3:0x113 / me=tesa / subme=10 / psy=1 / psy_rd=1.00:0.00 / mixed_ref=1 / me_range=16 / chroma_me=1 / trellis=2 / 8x8dct=1 / cqm=0 / deadzone=21,11 / fast_pskip=0 / chroma_qp_offset=-2 / threads=6 / sliced_threads=0 / nr=0 / decimate=0 / interlaced=0 / constrained_intra=0 / bframes=6 / b_pyramid=2 / b_adapt=2 / b_bias=0 / direct=3 / weightb=1 / open_gop=0 / weightp=2 / keyint=250 / keyint_min=23 / scenecut=40 / intra_refresh=0 / rc=2pass / mbtree=0 / bitrate=7000 / ratetol=1.0 / qcomp=0.60 / qpmin=10 / qpmax=51 / qpstep=4 / cplxblur=20.0 / qblur=0.5 / ip_ratio=1.40 / pb_ratio=1.30 / aq=1:0.80
Язык : English
Default : Да
Forced : Нет

Аудио #1
Идентификатор : 2
Формат : AC-3
Формат/Информация : Audio Coding 3
Расширение режима : CM (complete main)
Параметр Endianness формата : Big
Идентификатор кодека : A_AC3
Продолжительность : 2 ч. 1 м.
Вид битрейта : Постоянный
Битрейт : 448 Кбит/сек
Каналы : 6 каналов
Расположение каналов : Front: L C R, Side: L R, LFE
Частота : 48,0 КГц
Частота кадров : 31,250 кадров/сек (1536 spf)
Метод сжатия : С потерями
Размер потока : 390 Мбайт (5%)
Заголовок : AC3 5.1ch 448 kbps - Многоголосый
Язык : Russian
Default : Да
Forced : Нет

Аудио #2
Идентификатор : 3
Формат : DTS
Формат/Информация : Digital Theater Systems
Режим : 16
Параметр Endianness формата : Big
Идентификатор кодека : A_DTS
Продолжительность : 2 ч. 1 м.
Вид битрейта : Постоянный
Битрейт : 1509 Кбит/сек
Каналы : 6 каналов
Расположение каналов : Front: L C R, Side: L R, LFE
Частота : 48,0 КГц
Частота кадров : 93,750 кадра/сек (512 spf)
Битовая глубина : 24 бит
Метод сжатия : С потерями
Размер потока : 1,28 Гбайт (16%)
Заголовок : DTS 5.1ch 1510 kbps
Язык : English
Default : Нет
Forced : Нет

Аудио #3
Идентификатор : 4
Формат : AC-3
Формат/Информация : Audio Coding 3
Расширение режима : CM (complete main)
Параметр Endianness формата : Big
Идентификатор кодека : A_AC3
Продолжительность : 2 ч. 1 м.
Вид битрейта : Постоянный
Битрейт : 256 Кбит/сек
Каналы : 2 канала
Расположение каналов : Front: L R
Частота : 48,0 КГц
Частота кадров : 31,250 кадров/сек (1536 spf)
Метод сжатия : С потерями
Размер потока : 223 Мбайт (3%)
Заголовок : AC3 2.0ch 256 kbps - Commentary
Язык : English
Default : Нет
Forced : Нет

Текст #1
Идентификатор : 5
Формат : UTF-8
Идентификатор кодека : S_TEXT/UTF8
Идентификатор кодека/Информация : UTF-8 Plain Text
Язык : Russian
Default : Нет
Forced : Нет

Текст #2
Идентификатор : 6
Формат : UTF-8
Идентификатор кодека : S_TEXT/UTF8
Идентификатор кодека/Информация : UTF-8 Plain Text
Язык : Ukrainian
Default : Нет
Forced : Нет

Текст #3
Идентификатор : 7
Формат : UTF-8
Идентификатор кодека : S_TEXT/UTF8
Идентификатор кодека/Информация : UTF-8 Plain Text
Язык : English
Default : Нет
Forced : Нет

Меню
00:00:00.000 : en:00:00:00.000
00:05:59.859 : en:00:05:59.859
00:08:05.026 : en:00:08:05.026
00:12:29.082 : en:00:12:29.082
00:15:26.509 : en:00:15:26.509
00:22:00.110 : en:00:22:00.110
00:26:46.313 : en:00:26:46.313
00:30:46.303 : en:00:30:46.303
00:37:39.132 : en:00:37:39.132
00:41:25.066 : en:00:41:25.066
00:46:00.341 : en:00:46:00.341
00:48:15.017 : en:00:48:15.017
00:56:59.583 : en:00:56:59.583
01:04:34.704 : en:01:04:34.704
01:10:26.556 : en:01:10:26.556
01:14:28.214 : en:01:14:28.214
01:19:14.792 : en:01:19:14.792
01:23:47.022 : en:01:23:47.022
01:28:57.999 : en:01:28:57.999
01:35:14.042 : en:01:35:14.042
01:38:41.541 : en:01:38:41.541
01:46:24.336 : en:01:46:24.336
01:51:02.364 : en:01:51:02.364
01:55:09.820 : en:01:55:09.820





_________________
Проголосуй за трекер Открытый торрент трекер - RUS-MEDIA.ORG

Проголосуй Открытый торрент трекер - RUS-MEDIA.ORG


Вернуться к началу
 Профиль Отправить личное сообщение  
 
   Похожие торренты   Автор   Торрент   Размер 
В этой теме нет новых непрочитанных сообщений. Отель «Руанда» / Hotel Rwanda [драма, военный, история, 2004] BDRip, Mvo

salma3

51 | 14

2.18 ГБ

В этой теме нет новых непрочитанных сообщений. Отель «Руанда» / Hotel Rwanda [драма, военный, история, 2004] BDRip-AVC, Mvo

salma3

18 | 10

1.45 ГБ

В этой теме нет новых непрочитанных сообщений. Отель «Руанда» / Hotel Rwanda [драма, военный, история, 2004] BDRip 1080p, 2Mvo+Sub

salma3

23 | 10

8.67 ГБ

В этой теме нет новых непрочитанных сообщений. Отель Нью-Хэмпшир / The Hotel New Hampshire [драма, мелодрама, комедия, 1984] BDRip 720p, Mvo

salma3

1 | 0

9.97 ГБ

В этой теме нет новых непрочитанных сообщений. Отель для собак / Hotel for Dogs [Комедия, семейный, 2009] BDRip 720p, Dub+Dvo+Sub

salma3

23 | 4

7.35 ГБ

В этой теме нет новых непрочитанных сообщений. Отель Хайд / Hotel Hyde (2004) WEB-DL

salma3

11 | 0

2.53 ГБ

В этой теме нет новых непрочитанных сообщений. Отель «Артемида» / Hotel Artemis [Боевик, триллер, криминал, 2018] BDRip 720p, Dub [iTunes]

salma3

0 | 0

5.21 ГБ


Начать новую тему Ответить на тему  [ 1 сообщение ] 




Для Мосгорсуда, Роскомнадзора и рекламодателей:: mosgorsud-torrent[собачка]yandex.ru
cron