Торрент файл
скачать торрент магнет ссылка Добавлен: 24 фев 2017, 23:27
Размер: 9.58 ГБ
Сидеров: 47
Личеров: 12
Статус: (salma3)
Автор

СообщениеДобавлено: 24 фев 2017, 23:27 

Не в сети
Супермодератор
Аватара пользователя
Дата регистрации:
15 фев 2012, 16:44
Возраст: 28
Спасибо: 6643 / 2146
Сообщения: 45769
Год выхода: 2008
Жанр: фантастика, боевик, драма
Режиссер: Питер Берг

В ролях: Уилл Смит, Шарлиз Терон, Джейсон Бейтман, Джей Хед, Эдди Марсан, Дэвид Мэтти, Метрикс Фиттен, Томас Леннон, Джонни Галэки, Хейли Норман

О фильме:
Есть герои, есть супергерои, и есть Хэнкок. Обладание сверхспособностями предполагает ответственность, все знают это — кроме него. За любую задачу он берётся с душой и лучшими намерениями, спасает жизни людей — ценой нечеловеческих разрушений и неисчислимого ущерба. В конце концов, терпение общественности подходит к концу: люди благодарны своему местному герою, но иногда не понимают, чем заслужили такое наказание. Хэнкок не из тех парней, кого волнует какое-то там общественное мнение, но однажды, после очередного подвига, спасая высокопоставленного пиарщика Рэя, он вдруг понимает, что в некотором смысле он может быть уязвим. С этим трудно смириться, особенно по мнению Мэри, жены Рэя, считающей, что Хэнкок попросту безнадежен.



Страна: США
Продолжительность: 01:42:14
Перевод: Профессиональный (дублированный) Blu-ray CEE + Профессиональный (многоголосый, закадровый) Кравец + Авторский (одноголосый, закадровый) Ю.Живов + Авторский (одноголосый, закадровый) А.Гаврилов

Файл
Формат: Matroska
Качество: BDRip 720p
Видео: 1280x534 at 23.976 fps, x264@L4.1, ~8793 kbps avg
Аудио#1: Russian: 48 kHz, AC3, 3/2 (L,C,R,l,r) + LFE ch, ~448 kbps avg |Дубляж, Blu-ray CEE|
Аудио#2: Russian: 48 kHz, AC3, 3/2 (L,C,R,l,r) + LFE ch, ~448 kbps avg |Многоголосый закадровый, Кравец|
Аудио#3: Russian: 48 kHz, DTS, 3/2 (L,C,R,l,r) + LFE ch, ~755 kbps avg |Авторский, Ю.Живов|
Аудио#4: Russian: 48 kHz, DTS, 3/2 (L,C,R,l,r) + LFE ch, ~755 kbps avg |Авторский, А.Гаврилов|
Аудио#5: Ukrainian: 48 kHz, AC3, 3/2 (L,C,R,l,r) + LFE ch, ~448 kbps avg |Дубляж, Blu-ray CEE|
Аудио#6: English: 48 kHz, DTS, 3/2 (L,C,R,l,r) + LFE ch, ~1509 kbps avg
Субтитры: Russian (Forced), Russian, Ukrainian (на непереведенные места), English

***Сохранены оригинальные главы как на Blu-ray.
***Видеоряд от SbR!

Первоначально фильм получил рейтинг «R» за то, что герой Смита употребляет алкоголь перед несовершеннолетним и летает в состоянии алкогольного опьянения.
Фильм был показан на военной базе США на Ближнем Востоке за неделю до его премьеры в США - показ был бесплатным для всех американских военнослужащих на этой базе.
Имя главного героя появилось в результате ошибки. В оригинале герой Уилла Смита объясняет, что когда он очнулся в больнице, медсестра сказала ему поставить «Джона Хэнкока» на одной из бумаг. Джон Хэнкок - американский государственный деятель, получивший большую известность за особо крупную подпись, поставленную под Декларацией независимости США. В последствии его имя стало нарицательным и значило «поставить подпись» или «расписаться». В российском официальном переводе была указана совсем другая причина появления этих инициалов.
Сценарий фильма на протяжении десяти лет переходил от одной студии к другой, но никто не решался его воплотить в жизнь. В течение этого времени на главную роль прочили многих известных актеров, среди которых были Джордж Клуни, Бен Аффлек, Мэтт Дэймон и Леонардо ДиКаприо.
После того как студия «Warner Bros.» отказалась от проекта, им занялась «Sony».
В одной из сцен Мэри одета в футболку колледжа «Macalester College». Питер Берг закончил данный колледж.
Кандидатура Дэйва Шапелла рассматривалась на главную роль.
В некоторые кинотеатры копии фильма доставляли либо под названием «Hidden from Earth», либо «Speak Publicly».
Изначально фильм должен был называться «Сегодня вечером он придет». Затем его переименовали в «Джона Хэнкока», а после сократили до «Хэнкок».
Уилл Смит хотел, чтобы Айшвария Рай сыграла Мэри, но ей пришлось отказаться от роли из-за занятости на других проектах.
Шарлиз Терон и Джейсон Бейтман сыграли супругов в третьем сезоне «Замедленного развития» (2003).
Винсент Нго написал сценарий фильма в 1996 году. Почти десять лет спустя Винс Джиллигэн переписал сценарий, Джонатан Мостоу должен был поставить фильм, а премьера - состояться в 2007 году.
Когда Джонатан Мостоу покинул проект в мае 2006 года, режиссером назначили Габриэле Муччино, который в то время занимался монтажом «В погоне за счастьем» (2006), где также сыграл Уилл Смит. «Хэнкок» должен был стать их следующим совместным проектом, однако Смит решил сначала сделать «Я - легенда» (2007). В октябре 2006 года Габриэле покинул проект из-за творческих разногласий.
На пост режиссера также рассматривались Майкл Манн и Тони Скотт.
В фильме содержится 525 кадров со спецэффектами.
В сцене, где Рэй впервые объясняет свое видение PR-кампании, членов совета директоров сыграли различные голливудские продюсеры, среди которых Акива Голдсман и Майкл Манн.
[*]Питер Берг, режиссер фильма, сыграл одного из врачей, которые борются за жизнь Мэри.
Общее
Уникальный идентификатор : 199849901938320058247688028440407270381 (0x9659B0E8D282193F8414F7A4239363ED)
Полное имя : Hancock.2008.Unrated.720p.BluRay.4xRus.Ukr.Eng.HDCLUB-SbR.mkv
Формат : Matroska
Версия формата : Version 4 / Version 2
Размер файла : 9,58 Гбайт
Продолжительность : 1 ч. 42 м.
Общий поток : 13,4 Мбит/сек
Название фильма : Hancock (2008) Unrated - Encode by SbR
Дата кодирования : UTC 2016-05-23 05:30:40
Программа кодирования : mkvmerge v8.2.0 ('World of Adventure') 64bit
Библиотека кодирования : libebml v1.3.1 + libmatroska v1.4.2
Attachements : cover.jpg / xlog.txt

Видео
Идентификатор : 1
Формат : AVC
Формат/Информация : Advanced Video Codec
Профиль формата : High@L4.1
Параметр CABAC формата : Да
Параметр ReFrames формата : 12 кадров
Идентификатор кодека : V_MPEG4/ISO/AVC
Продолжительность : 1 ч. 42 м.
Битрейт : 8793 Кбит/сек
Ширина : 1280 пикселей
Высота : 534 пикселя
Соотношение сторон : 2,40:1
Режим частоты кадров : Постоянный
Частота кадров : 23,976 кадра/сек
Цветовое пространство : YUV
Субдискретизация насыщенности : 4:2:0
Битовая глубина : 8 бит
Тип развёртки : Прогрессивная
Бит/(Пиксели*Кадры) : 0.537
Размер потока : 6,28 Гбайт (66%)
Заголовок : Release for HDCLUB
Библиотека кодирования : x264 core 148 r2692kMod 64f4e24
Настройки программы : cabac=1 / ref=12 / deblock=1:-2:-2 / analyse=0x3:0x133 / me=umh / subme=11 / psy=1 / fade_compensate=0.00 / psy_rd=1.00:0.00 / mixed_ref=1 / me_range=32 / chroma_me=1 / trellis=2 / 8x8dct=1 / cqm=0 / deadzone=21,11 / fast_pskip=1 / chroma_qp_offset=-2 / threads=12 / lookahead_threads=2 / sliced_threads=0 / nr=0 / decimate=1 / interlaced=0 / bluray_compat=0 / constrained_intra=0 / fgo=0 / bframes=8 / b_pyramid=2 / b_adapt=2 / b_bias=0 / direct=1 / weightb=1 / open_gop=0 / weightp=2 / keyint=250 / keyint_min=23 / scenecut=40 / intra_refresh=0 / rc_lookahead=60 / rc=crf / mbtree=0 / crf=16.0000 / qcomp=0.70 / qpmin=0 / qpmax=69 / qpstep=4 / vbv_maxrate=62500 / vbv_bufsize=78125 / crf_max=0.0 / nal_hrd=none / filler=0 / ip_ratio=1.40 / pb_ratio=1.30 / aq=1:0.80
Язык : English
Default : Да
Forced : Нет
Цветовой диапазон : Limited
Основные цвета : BT.709
Характеристики трансфера : BT.709
Коэффициенты матрицы : BT.709

Аудио #1
Идентификатор : 2
Формат : AC-3
Формат/Информация : Audio Coding 3
Расширение режима : CM (complete main)
Параметр Endianness формата : Big
Идентификатор кодека : A_AC3
Продолжительность : 1 ч. 42 м.
Вид битрейта : Постоянный
Битрейт : 448 Кбит/сек
Каналы : 6 каналов
Расположение каналов : Front: L C R, Side: L R, LFE
Частота : 48,0 КГц
Метод сжатия : С потерями
Размер потока : 328 Мбайт (3%)
Заголовок : Дубляж, Blu-ray CEE
Язык : Russian
Default : Да
Forced : Нет

Аудио #2
Идентификатор : 3
Формат : AC-3
Формат/Информация : Audio Coding 3
Расширение режима : CM (complete main)
Параметр Endianness формата : Big
Идентификатор кодека : A_AC3
Продолжительность : 1 ч. 42 м.
Вид битрейта : Постоянный
Битрейт : 448 Кбит/сек
Каналы : 6 каналов
Расположение каналов : Front: L C R, Side: L R, LFE
Частота : 48,0 КГц
Метод сжатия : С потерями
Размер потока : 328 Мбайт (3%)
Заголовок : Многоголосый, Кравец
Язык : Russian
Default : Нет
Forced : Нет

Аудио #3
Идентификатор : 4
Формат : DTS
Формат/Информация : Digital Theater Systems
Режим : 16
Параметр Endianness формата : Big
Идентификатор кодека : A_DTS
Продолжительность : 1 ч. 42 м.
Вид битрейта : Постоянный
Битрейт : 755 Кбит/сек
Каналы : 6 каналов
Расположение каналов : Front: L C R, Side: L R, LFE
Частота : 48,0 КГц
Битовая глубина : 24 бит
Метод сжатия : С потерями
Размер потока : 552 Мбайт (6%)
Заголовок : Живов
Язык : Russian
Default : Нет
Forced : Нет

Аудио #4
Идентификатор : 5
Формат : DTS
Формат/Информация : Digital Theater Systems
Режим : 16
Параметр Endianness формата : Big
Идентификатор кодека : A_DTS
Продолжительность : 1 ч. 42 м.
Вид битрейта : Постоянный
Битрейт : 755 Кбит/сек
Каналы : 6 каналов
Расположение каналов : Front: L C R, Side: L R, LFE
Частота : 48,0 КГц
Битовая глубина : 24 бит
Метод сжатия : С потерями
Размер потока : 552 Мбайт (6%)
Заголовок : Гаврилов
Язык : Russian
Default : Нет
Forced : Нет

Аудио #5
Идентификатор : 6
Формат : AC-3
Формат/Информация : Audio Coding 3
Расширение режима : CM (complete main)
Параметр Endianness формата : Big
Идентификатор кодека : A_AC3
Продолжительность : 1 ч. 42 м.
Вид битрейта : Постоянный
Битрейт : 448 Кбит/сек
Каналы : 6 каналов
Расположение каналов : Front: L C R, Side: L R, LFE
Частота : 48,0 КГц
Метод сжатия : С потерями
Размер потока : 328 Мбайт (3%)
Заголовок : Дубляж, Blu-ray CEE
Язык : Ukrainian
Default : Нет
Forced : Нет

Аудио #6
Идентификатор : 7
Формат : DTS
Формат/Информация : Digital Theater Systems
Режим : 16
Параметр Endianness формата : Big
Идентификатор кодека : A_DTS
Продолжительность : 1 ч. 42 м.
Вид битрейта : Постоянный
Битрейт : 1509 Кбит/сек
Каналы : 6 каналов
Расположение каналов : Front: L C R, Side: L R, LFE
Частота : 48,0 КГц
Битовая глубина : 16 бит
Метод сжатия : С потерями
Размер потока : 1,08 Гбайт (11%)
Язык : English
Default : Нет
Forced : Нет

Текст #1
Идентификатор : 8
Формат : UTF-8
Идентификатор кодека : S_TEXT/UTF8
Идентификатор кодека/Информация : UTF-8 Plain Text
Заголовок : Forced
Язык : Russian
Default : Да
Forced : Нет

Текст #2
Идентификатор : 9
Формат : UTF-8
Идентификатор кодека : S_TEXT/UTF8
Идентификатор кодека/Информация : UTF-8 Plain Text
Язык : Russian
Default : Нет
Forced : Нет

Текст #3
Идентификатор : 10
Формат : UTF-8
Идентификатор кодека : S_TEXT/UTF8
Идентификатор кодека/Информация : UTF-8 Plain Text
Заголовок : Forced
Язык : Ukrainian
Default : Нет
Forced : Нет

Текст #4
Идентификатор : 11
Формат : UTF-8
Идентификатор кодека : S_TEXT/UTF8
Идентификатор кодека/Информация : UTF-8 Plain Text
Язык : English
Default : Нет
Forced : Нет

Меню
00:00:00.000 : en:Chapter 1
00:11:45.871 : en:Chapter 2
00:17:26.503 : en:Chapter 3
00:23:55.058 : en:Chapter 4
00:28:24.953 : en:Chapter 5
00:35:40.554 : en:Chapter 6
00:42:44.103 : en:Chapter 7
00:47:00.525 : en:Chapter 8
00:49:54.991 : en:Chapter 9
00:54:07.869 : en:Chapter 10
01:02:59.942 : en:Chapter 11
01:08:20.387 : en:Chapter 12
01:15:13.300 : en:Chapter 13
01:21:32.429 : en:Chapter 14
01:25:35.171 : en:Chapter 15
01:31:02.415 : en:Chapter 16

Релиз:


_________________
Проголосуй за трекер Открытый торрент трекер - RUS-MEDIA.ORG

Проголосуй Открытый торрент трекер - RUS-MEDIA.ORG



реклама партнёра


Вернуться к началу
 Профиль Отправить личное сообщение  
 
   Похожие торренты   Автор   Торрент   Размер 
В этой теме нет новых непрочитанных сообщений. Хэнкок / Hancock [фантастика, боевик, драма, 2008] BDRip 720p, Dub [Unrated]

salma3

1 | 44

5.33 ГБ

В этой теме нет новых непрочитанных сообщений. Хэнкок / Hancock [фантастика, боевик, драма, 2008] WEB-DL 1080p, Dub [Theatrical Cut] [Open Matte]

salma3

20 | 3

9.05 ГБ

В этой теме нет новых непрочитанных сообщений. Коломбиана / Colombiana [боевик, триллер, драма, криминал, 2011] BDRip 720p, Dub [Unrated]

salma3

1 | 34

5.07 ГБ

В этой теме нет новых непрочитанных сообщений. Судный день / Doomsday [Фантастика, боевик, триллер, 2008] BDRemux 1080p, Dub [Unrated]

salma3

18 | 2

24.88 ГБ

В этой теме нет новых непрочитанных сообщений. Напролом / Lockout [Фантастика, боевик, триллер, 2012] BDRip-AVC, Dub [UNRATED]

salma3

213 | 51

745.91 МБ

В этой теме нет новых непрочитанных сообщений. Дум / Doom [ужасы, фантастика, боевик, 2005] BDRip-AVC, Dub [Unrated Extended Edition]

salma3

235 | 56

744.22 МБ

В этой теме нет новых непрочитанных сообщений. Блэйд 3: Троица / Blade: Trinity [ужасы, фантастика, фэнтези, 2004] BDRip 720p, Dub [Unrated]

salma3

7 | 4

5.76 ГБ


Начать новую тему Ответить на тему  [ 1 сообщение ] 




Для Мосгорсуда, Роскомнадзора и рекламодателей:: mosgorsud-torrent[собачка]yandex.ru