Торрент файл
скачать торрент магнет ссылка Добавлен: 21 фев 2017, 23:11
Размер: 7.64 ГБ
Сидеров: 58
Личеров: 38
Статус: (salma3)
Автор

СообщениеДобавлено: 21 фев 2017, 23:11 

Не в сети
Супермодератор
Аватара пользователя
Дата регистрации:
15 фев 2012, 16:44
Возраст: 28
Спасибо: 6565 / 2130
Сообщения: 43671
Год выхода: 2010
Жанр: боевик, триллер
Режиссер: Роберт Либерман

В ролях: Стив Остин, Эрика Серра, Адам Бич, Рон Лиа, Вив Ликок, Джейсон Шомбинг, Стефен Димопоулос, Далила Бела, Энтони Харрисон, Эндрю Вилер, ...

Страна: Канада, США
Продолжительность: 01:30:07
Перевод1: Профессиональный (двухголосый, закадровый) НТВ+
Перевод2: Любительский (двухголосый, закадровый) ?

О фильме: Эта история о специальном агенте ФБР, которого поразила амнезия. Парень вообще ничего не помнит. Не помнит, кто он, откуда, как его зовут, кто его семья. Зато его помнит ФБР, русская мафия и одна красивая девушка. Всем от мужчины что-то нужно, ведь, как говорят со всех сторон, у него есть какая-то нужная информация в голове. Теперь нужно, чтобы наш герой все вспомнил…



Кодек: x264
Качество: BDRip 1080p
Видео: 1920x1080, 10000 kbps, 23,976 fps
Аудио #1: AC-3, 2 ch, 192 kbps (Rus) - DVO НТВ+
Аудио #2: AC-3, 6 ch, 448 kbps (Rus) - DVOL
Аудио #3: DTS, 6 ch, 1509 kbps (Eng)
Субтитры: Английские

За исходник спасибо - 18
x264 [info]: frame I:754 Avg QP:19.84 size:218619
x264 [info]: frame P:30297 Avg QP:22.30 size:101484
x264 [info]: frame B:98598 Avg QP:24.30 size: 35642
x264 [info]: consecutive B-frames: 3.8% 3.8% 10.1% 11.8% 13.1% 49.2% 6.2% 0.4% 0.8% 0.1% 0.1% 0.1% 0.4%

Общее
Уникальный идентификатор : 204691867549472787414935378250037118704 (0x99FE383ED2C41BAF88FDE5373DAEC6F0)
Полное имя : Незнакомец (The Stranger) 2010 BDRip 1080p.mkv
Формат : Matroska
Версия формата : Version 2
Размер файла : 7,64 Гбайт
Продолжительность : 1 ч. 30 м.
Общий поток : 12,1 Мбит/сек
Дата кодирования : UTC 2017-02-21 17:10:30
Программа кодирования : mkvmerge v4.0.0 ('The Stars were mine') сборка от Jun 6 2010 16:18:42
Библиотека кодирования : libebml v1.0.0 + libmatroska v1.0.0

Видео
Идентификатор : 1
Формат : AVC
Формат/Информация : Advanced Video Codec
Профиль формата : High@L4.1
Параметр CABAC формата : Да
Параметр ReFrames формата : 4 кадра
Идентификатор кодека : V_MPEG4/ISO/AVC
Продолжительность : 1 ч. 30 м.
Битрейт : 10000 Кбит/сек
Ширина : 1920 пикселей
Высота : 1080 пикселей
Соотношение сторон : 16:9
Режим частоты кадров : Постоянный
Частота кадров : 23,976 (24000/1001) кадра/сек
Цветовое пространство : YUV
Субдискретизация насыщенности : 4:2:0
Битовая глубина : 8 бит
Тип развёртки : Прогрессивная
Бит/(Пиксели*Кадры) : 0.201
Размер потока : 6,14 Гбайт (80%)
Библиотека кодирования : x264 core 146 r2538 121396c
Настройки программы : cabac=1 / ref=4 / deblock=1:-3:-3 / analyse=0x3:0x133 / me=umh / subme=11 / psy=1 / psy_rd=1.00:0.00 / mixed_ref=1 / me_range=32 / chroma_me=1 / trellis=2 / 8x8dct=1 / cqm=0 / deadzone=21,11 / fast_pskip=0 / chroma_qp_offset=-2 / threads=12 / lookahead_threads=2 / sliced_threads=0 / nr=0 / decimate=0 / interlaced=0 / bluray_compat=0 / constrained_intra=0 / bframes=12 / b_pyramid=2 / b_adapt=2 / b_bias=0 / direct=3 / weightb=1 / open_gop=0 / weightp=2 / keyint=240 / keyint_min=23 / scenecut=40 / intra_refresh=0 / rc=2pass / mbtree=0 / bitrate=10000 / ratetol=1.0 / qcomp=0.60 / qpmin=0 / qpmax=69 / qpstep=4 / cplxblur=20.0 / qblur=0.5 / ip_ratio=1.40 / pb_ratio=1.30 / aq=1:0.80
Язык : English
Default : Нет
Forced : Нет

Аудио #1
Идентификатор : 2
Формат : AC-3
Формат/Информация : Audio Coding 3
Расширение режима : CM (complete main)
Параметр Endianness формата : Big
Идентификатор кодека : A_AC3
Продолжительность : 1 ч. 30 м.
Вид битрейта : Постоянный
Битрейт : 192 Кбит/сек
Каналы : 2 канала
Расположение каналов : Front: L R
Частота : 48,0 КГц
Частота кадров : 31,250 кадров/сек (1536 spf)
Метод сжатия : С потерями
Размер потока : 124 Мбайт (2%)
Заголовок : DVO НТВ+
Язык : Russian
Default : Нет
Forced : Нет

Аудио #2
Идентификатор : 3
Формат : AC-3
Формат/Информация : Audio Coding 3
Расширение режима : CM (complete main)
Параметр Endianness формата : Big
Идентификатор кодека : A_AC3
Продолжительность : 1 ч. 30 м.
Вид битрейта : Постоянный
Битрейт : 448 Кбит/сек
Каналы : 6 каналов
Расположение каналов : Front: L C R, Side: L R, LFE
Частота : 48,0 КГц
Частота кадров : 31,250 кадров/сек (1536 spf)
Метод сжатия : С потерями
Размер потока : 289 Мбайт (4%)
Заголовок : DVOL
Язык : Russian
Default : Нет
Forced : Нет

Аудио #3
Идентификатор : 4
Формат : DTS
Формат/Информация : Digital Theater Systems
Режим : 16
Параметр Endianness формата : Big
Идентификатор кодека : A_DTS
Продолжительность : 1 ч. 30 м.
Вид битрейта : Постоянный
Битрейт : 1509 Кбит/сек
Каналы : 6 каналов
Расположение каналов : Front: L C R, Side: L R, LFE
Частота : 48,0 КГц
Частота кадров : 93,750 кадра/сек (512 spf)
Битовая глубина : 24 бит
Метод сжатия : С потерями
Задержка видео : 11 мс.
Размер потока : 973 Мбайт (12%)
Язык : English
Default : Нет
Forced : Нет

Текст #1
Идентификатор : 5
Формат : UTF-8
Идентификатор кодека : S_TEXT/UTF8
Идентификатор кодека/Информация : UTF-8 Plain Text
Язык : English
Default : Нет
Forced : Нет

Текст #2
Идентификатор : 6
Формат : UTF-8
Идентификатор кодека : S_TEXT/UTF8
Идентификатор кодека/Информация : UTF-8 Plain Text
Заголовок : SDH
Язык : English
Default : Нет
Forced : Нет


_________________
Проголосуй за трекер Открытый торрент трекер - RUS-MEDIA.ORG

Проголосуй Открытый торрент трекер - RUS-MEDIA.ORG



реклама партнёра


Вернуться к началу
 Профиль Отправить личное сообщение  
 
   Похожие торренты   Автор   Торрент   Размер 
В этой теме нет новых непрочитанных сообщений. Когда звонит незнакомец / When a Stranger Calls [ужасы, триллер, 1979] BDRip, Avo

salma3

5 | 5

1.45 ГБ

В этой теме нет новых непрочитанных сообщений. Ночной незнакомец / Чужак в ночи / Stranger by Night [триллер, 1994] DVDRip, Mvo

salma3

7 | 4

1.34 ГБ

В этой теме нет новых непрочитанных сообщений. Когда звонит незнакомец / When a Stranger Calls [Ужасы, триллер, 2006] WEB-DL 1080p, Dub

salma3

78 | 28

3.49 ГБ

В этой теме нет новых непрочитанных сообщений. Когда звонит незнакомец / When a Stranger Calls [Ужасы, триллер, 1979] BDRip 720p, Avo+Sub

salma3

15 | 0

6.98 ГБ

В этой теме нет новых непрочитанных сообщений. Незнакомец / The Stranger (Гильермо Амоедо) [Ужасы, Триллер, Драма, Детектив, 2014] WEB-DLRip, avo

Dracon

3 | 1

1.46 ГБ

В этой теме нет новых непрочитанных сообщений. Идеальный незнакомец / Perfect stranger [триллер, драма, криминал, детектив, 2007] BDRip 1080p, Dub+Avo+Sub

salma3

47 | 9

11.03 ГБ

В этой теме нет новых непрочитанных сообщений. Присутствие / The Presence [Мистика, триллер, драма, 2010] ВDRip 1080р, Mvo+Sub

salma3

17 | 38

7.06 ГБ


Начать новую тему Ответить на тему  [ 1 сообщение ] 




Для Мосгорсуда, Роскомнадзора и рекламодателей:: mosgorsud-torrent[собачка]yandex.ru