Торрент файл
скачать торрент магнет ссылка Добавлен: 21 фев 2017, 13:50
Размер: 19.23 ГБ
Сидеров: 3
Личеров: 7
Статус: (salma3)
Автор

СообщениеДобавлено: 21 фев 2017, 13:50 

Не в сети
Супермодератор
Аватара пользователя
Дата регистрации:
15 фев 2012, 16:44
Возраст: 28
Спасибо: 7224 / 2147
Сообщения: 68057
Год выхода: 1986
Жанр: боевик, драма, военный
Режиссер: Клинт Иствуд

В ролях: Клинт Иствуд, Марша Мейсон, Эверет МакГилл, Моузес Ганн, Айлин Хекарт, Бо Свенсон, Бойд Гейнс, Марио Ван Пиблз, Арлен Дин Снайдер, Винсент Ирисарри

О фильме:
Клинт Иствуд в роли Тома Хайвея, ветерана корейской и вьетнамской кампаний. Это много выстрадавший и искалеченный войной человек… В новой жизни ему нет места, его не понимают, и все, что ему остается, — это вино и воспоминания о прошлом. А также женщина, которая много для него значит… Однако, если потребуется, Том Хайвей сможет взяться за старое ремесло и завершить свой путь подобно воину, на поле боя…



Страна: США
Продолжительность: 02:09:57
Перевод: Профессиональный (многоголосый, закадровый) | R5 + 2х Авторский (одноголосый)
Субтитры: английские

Качество: BDRip 1080p
Видео: 1920x1080 (16:9), 23.976 fps, MPEG-4 AVC ~18.9 Мbps avg
Аудио №1: 48.0 kHz, AC3 Dolby Digital, 3/2 (L,C,R,l,r) + LFE ch, ~384 | МVO / R5
Аудио №2: 48.0 kHz, AC3 Dolby Digital, 2/0 (L,R) ch, ~192 | АVO / Василий Горчаков
Аудио №3: 48.0 kHz, AC3 Dolby Digital, 2/0 (L,R) ch, ~192 | АVO / Григорий Либергал
Аудио №4: 48.0 kHz, Digital Theater Systems, 3/2 (L,C,R,l,r) + LFE ch, ~1509 kbps / 24-bit | ENG
Формат субтитров: UTF-8 Plain Text

General
Уникальный идентификатор : 196965351966289922249755713673547344324 (0x942E259D96BE645284B7CC2C9535E9C4)
Полное имя : Перевал разбитых сердец.1986.BDRip.1080p by msltel.mkv
Формат : Matroska
Версия формата : Version 4 / Version 2
Размер файла : 19,2 Гбайт
Продолжительность : 2 ч. 9 м.
Общий поток : 21,2 Мбит/сек
Название фильма : Rip by msltel
Дата кодирования : UTC 2017-02-19 02:56:00
Программа кодирования : mkvmerge v8.2.0 ('World of Adventure') 64bit
Библиотека кодирования : libebml v1.3.1 + libmatroska v1.4.2

Видео
Идентификатор : 1
Формат : AVC
Формат/Информация : Advanced Video Codec
Профиль формата : High@L4.1
Параметр CABAC формата : Да
Параметр ReFrames формата : 4 кадра
Идентификатор кодека : V_MPEG4/ISO/AVC
Продолжительность : 2 ч. 9 м.
Битрейт : 18,9 Мбит/сек
Ширина : 1920 пикселей
Высота : 1080 пикселей
Соотношение сторон : 16:9
Режим частоты кадров : Постоянный
Частота кадров : 23,976 (24000/1001) кадра/сек
Цветовое пространство : YUV
Субдискретизация насыщенности : 4:2:0
Битовая глубина : 8 бит
Тип развёртки : Прогрессивная
Бит/(Пиксели*Кадры) : 0.380
Размер потока : 17,2 Гбайт (89%)
Библиотека кодирования : x264 core 146 r2538 121396c
Настройки программы : cabac=1 / ref=4 / deblock=1:-3:-3 / analyse=0x3:0x113 / me=umh / subme=11 / psy=1 / psy_rd=1.00:0.15 / mixed_ref=1 / me_range=32 / chroma_me=1 / trellis=2 / 8x8dct=1 / cqm=0 / deadzone=21,11 / fast_pskip=0 / chroma_qp_offset=-3 / threads=6 / lookahead_threads=1 / sliced_threads=0 / nr=0 / decimate=1 / interlaced=0 / bluray_compat=0 / constrained_intra=0 / bframes=10 / b_pyramid=2 / b_adapt=2 / b_bias=0 / direct=1 / weightb=1 / open_gop=0 / weightp=2 / keyint=230 / keyint_min=23 / scenecut=40 / intra_refresh=0 / rc_lookahead=40 / rc=crf / mbtree=0 / crf=19.4 / qcomp=0.60 / qpmin=0 / qpmax=69 / qpstep=4 / vbv_maxrate=62500 / vbv_bufsize=78125 / crf_max=0.0 / nal_hrd=none / filler=0 / ip_ratio=1.40 / pb_ratio=1.30 / aq=1:1.00
Язык : English
Default : Да
Forced : Нет

Аудио #1
Идентификатор : 2
Формат : AC-3
Формат/Информация : Audio Coding 3
Расширение режима : CM (complete main)
Параметр Endianness формата : Big
Идентификатор кодека : A_AC3
Продолжительность : 2 ч. 9 м.
Вид битрейта : Постоянный
Битрейт : 384 Кбит/сек
Каналы : 6 каналов
Расположение каналов : Front: L C R, Side: L R, LFE
Частота : 48,0 КГц
Частота кадров : 31,250 кадров/сек (1536 spf)
Битовая глубина : 16 бит
Метод сжатия : С потерями
Размер потока : 357 Мбайт (2%)
Заголовок : MVO
Язык : Russian
Default : Да
Forced : Нет

Аудио #2
Идентификатор : 3
Формат : AC-3
Формат/Информация : Audio Coding 3
Расширение режима : CM (complete main)
Параметр Endianness формата : Big
Идентификатор кодека : A_AC3
Продолжительность : 2 ч. 9 м.
Вид битрейта : Постоянный
Битрейт : 192 Кбит/сек
Каналы : 2 канала
Расположение каналов : Front: L R
Частота : 48,0 КГц
Частота кадров : 31,250 кадров/сек (1536 spf)
Битовая глубина : 16 бит
Метод сжатия : С потерями
Размер потока : 178 Мбайт (1%)
Заголовок : AVO (Василий Горчаков)
Язык : Russian
Default : Нет
Forced : Нет

Аудио #3
Идентификатор : 4
Формат : AC-3
Формат/Информация : Audio Coding 3
Расширение режима : CM (complete main)
Параметр Endianness формата : Big
Идентификатор кодека : A_AC3
Продолжительность : 2 ч. 9 м.
Вид битрейта : Постоянный
Битрейт : 192 Кбит/сек
Каналы : 2 канала
Расположение каналов : Front: L R
Частота : 48,0 КГц
Частота кадров : 31,250 кадров/сек (1536 spf)
Битовая глубина : 16 бит
Метод сжатия : С потерями
Размер потока : 178 Мбайт (1%)
Заголовок : AVO (Григорий Либергал)
Язык : Russian
Default : Нет
Forced : Нет

Аудио #4
Идентификатор : 5
Формат : DTS
Формат/Информация : Digital Theater Systems
Режим : 16
Параметр Endianness формата : Big
Идентификатор кодека : A_DTS
Продолжительность : 2 ч. 9 м.
Вид битрейта : Постоянный
Битрейт : 1509 Кбит/сек
Каналы : 6 каналов
Расположение каналов : Front: L C R, Side: L R, LFE
Частота : 48,0 КГц
Частота кадров : 93,750 кадра/сек (512 spf)
Битовая глубина : 24 бит
Метод сжатия : С потерями
Размер потока : 1,37 Гбайт (7%)
Заголовок : original
Язык : English
Default : Нет
Forced : Нет

Текст
Идентификатор : 6
Формат : UTF-8
Идентификатор кодека : S_TEXT/UTF8
Идентификатор кодека/Информация : UTF-8 Plain Text
Продолжительность : 2 ч. 6 м.
Битрейт : 63 бит/сек
Count of elements : 1567
Размер потока : 58,3 Кбайт (0%)
Заголовок : английские (для слабослышащих)
Язык : English
Default : Нет
Forced : Нет

Меню
00:00:00.000 : :Chapter 01
00:05:00.000 : :Chapter 02
00:10:00.000 : :Chapter 03
00:15:00.000 : :Chapter 04
00:20:00.000 : :Chapter 05
00:25:00.000 : :Chapter 06
00:30:00.000 : :Chapter 07
00:35:00.000 : :Chapter 08
00:40:00.000 : :Chapter 09
00:45:00.000 : :Chapter 10
00:50:00.000 : :Chapter 11
00:55:00.000 : :Chapter 12
01:00:00.000 : :Chapter 13
01:05:00.000 : :Chapter 14
01:10:00.000 : :Chapter 15
01:15:00.000 : :Chapter 16
01:20:00.000 : :Chapter 17
01:25:00.000 : :Chapter 18
01:30:00.000 : :Chapter 19
01:35:00.000 : :Chapter 20
01:40:00.000 : :Chapter 21
01:45:00.000 : :Chapter 22
01:50:00.000 : :Chapter 23
01:55:00.000 : :Chapter 24
02:00:00.000 : :Chapter 25
02:05:00.000 : :Chapter 26

Релиз от: msltel


_________________
Проголосуй за трекер Открытый торрент трекер - RUS-MEDIA.ORG

Проголосуй Открытый торрент трекер - RUS-MEDIA.ORG


Вернуться к началу
 Профиль Отправить личное сообщение  
 
   Похожие торренты   Автор   Торрент   Размер 
В этой теме нет новых непрочитанных сообщений. Перевал разбитых сердец / Heartbreak Ridge [боевик, драма, военный, 1986] BDRip 720p, Mvo+Avo+Sub

salma3

60 | 41

7.3 ГБ

В этой теме нет новых непрочитанных сообщений. По соображениям совести / Hacksaw Ridge (драма, военный, история, 2016) BDRip 1080p | L, A

marya111

827 | 385

9 ГБ

В этой теме нет новых непрочитанных сообщений. По соображениям совести / Hacksaw Ridge [драма, военный, история, 2016] BDRip 1080p, Dub+Sub [iTunes]

salma3

1951 | 493

7.51 ГБ

В этой теме нет новых непрочитанных сообщений. Праздник разбитых сердец [Мелодрама, 2017] WEB-DLRip

salma3

273 | 76

1.37 ГБ

В этой теме нет новых непрочитанных сообщений. По соображениям совести / Hacksaw Ridge [драма, военный, история, 2016] BDRip, Mvo

salma3

840 | 287

2.18 ГБ

В этой теме нет новых непрочитанных сообщений. По соображениям совести / Hacksaw Ridge [Драма, военный, история, 2016] BDRemux 1080p, Dub

salma3

4 | 28

39.73 ГБ

В этой теме нет новых непрочитанных сообщений. По соображениям совести / Hacksaw Ridge [драма, военный, история, 2016] BDRip, Dub+Sub [iTunes]

salma3

2478 | 883

1.46 ГБ


Начать новую тему Ответить на тему  [ 1 сообщение ] 




Для Мосгорсуда, Роскомнадзора и рекламодателей:: mosgorsud-torrent[собачка]yandex.ru
cron