Торрент файл
скачать торрент магнет ссылка Добавлен: 20 фев 2017, 12:23
Размер: 11.3 ГБ
Сидеров: 13
Личеров: 1
Статус: (salma3)
Автор

СообщениеДобавлено: 20 фев 2017, 12:23 

Не в сети
Супермодератор
Аватара пользователя
Дата регистрации:
15 фев 2012, 16:44
Возраст: 28
Спасибо: 7163 / 2147
Сообщения: 61793
Год выхода: 1960
Жанр: мелодрама, комедия, семейный
Режиссер: Чарлз Уолтерз / Charles Walters

В ролях: Дорис Дэй/Doris Day, Дэвид Найвен/David Niven, Дженис Пэйдж/Janis Paige, Ричард Хэйдн/Richard Haydn, Спринг Байингтон/Spring Byington, Джек Уестон/Jack Weston

О фильме: Лэрри Маккей, профессор колумбийского университета, становится ведущим театральным критиком Нью-Йорка и постепенно приобретает репутацию беспристрастного и порой безжалостного рецензента. Его жена Кейт мечтает о переезде в загородный дом, более подходящий для них и их четырёх сыновей, чем тесная нью-йоркская квартира. После переезда в деревню Кейт начинает принимать активное участие в постановке спектакля местными энтузиастами и совершенно довольна загородной жизнью. Лэрри же всё больше и больше погружается в театральную среду Нью-Йорка и вынужден разрываться между работой и семьёй.



Страна: США
Продолжительность: 01:50:55
Перевод: ОЛюбительский одноголосый закадровый (binjak)
Cубтитры : Русский (clydy), Английский

Контейнер: MKV
Качество: WEBRip 1080p
Видео: MPEG-4 AVC, High@L4, 14.2 Mb/s, 1 920 x 800, 23.976 fps
Аудио 1 : Русский (AC-3, 2ch, 192 kb/s, 48.0 KHz) VO
Аудио 2 : Английский (E-AC-3, 2ch, 224 kb/s, 48.0 KHz)
Субтитры : Russian SRT, English SRT
Навигация по главам: есть
Глобальные тэги: есть

Общее
Уникальный идентификатор : 194233363763472009177361803285056078910 (0x921FFC3299E7D349884A9D625C1A443E)
Полное имя : E:Пожалуйста не ешь маргаритки Please Don't Eat The Daisies (1960).mkv
Формат : Matroska
Версия формата : Version 4 / Version 2
Размер файла : 11,3 Гбайт
Продолжительность : 1 ч. 51 м.
Режим общего битрейта : Переменный
Общий поток : 14,6 Мбит/сек
Название фильма : Please Don't Eat the Daisies
Тип содержимого : Movie
Описание : The Uproarious Movie From The Big Best-Seller!
Дата выпуска : 1960-03-31
Дата кодирования : UTC 2017-02-18 15:20:02
Программа кодирования : mkvmerge v9.8.0 ('Kuglblids') 64bit
Библиотека кодирования : libebml v1.3.4 + libmatroska v1.4.5
Обложка : Yes
Attachments : cover.jpg
ACTOR : Doris Day, David Niven, Janis Paige, Spring Byington, Richard Haydn, Patsy Kelly, Jack Weston, John Harding, Margaret Lindsay, Bess Flowers, Charles Herbert, Stanley Livingston, Flip Mark, Irene Tedrow, Benny Rubin, Kathryn Card, Milton Frome
ARTIST : Doris Day, David Niven, Janis Paige, Spring Byington, Richard Haydn, Patsy Kelly, Jack Weston, John Harding, Margaret Lindsay, Bess Flowers, Charles Herbert, Stanley Livingston, Flip Mark, Irene Tedrow, Benny Rubin, Kathryn Card, Milton Frome
DIRECTOR : Charles Walters
GENRE : Comedy, Family, Romance
LAW_RATING : NR
PRODUCTION_STUDIO : Metro-Goldwyn-Mayer (MGM)
SCREENPLAY_BY : Isobel Lennart
SUMMARY : The Uproarious Movie From The Big Best-Seller!
SYNOPSIS : Drama critic Larry McKay, his wife Kay, and their four sons move from their crowded Manhattan apartment to an old house in the country. While housewife Kay settles into suburban life, Larry continues to enjoy the theater and party scene of New York. Kay soon begins to question Larry's fidelity when he mentions a flirtatious encounter with Broadway star Deborah Vaughn
Видео
Идентификатор : 1
Формат : AVC
Формат/Информация : Advanced Video Codec
Профиль формата : High@L4
Параметр CABAC формата : Да
Параметр ReFrames формата : 4 кадра
Идентификатор кодека : V_MPEG4/ISO/AVC
Продолжительность : 1 ч. 50 м.
Вид битрейта : Переменный
Битрейт : 14,2 Мбит/сек
Максимальный битрейт : 15,0 Мбит/сек
Ширина : 1920 пикселей
Высота : 800 пикселей
Соотношение сторон : 2,40:1
Режим частоты кадров : Постоянный
Частота кадров : 23,976 (24000/1001) кадра/сек
Цветовое пространство : YUV
Субдискретизация насыщенности : 4:2:0
Битовая глубина : 8 бит
Тип развёртки : Прогрессивная
Бит/(Пиксели*Кадры) : 0.385
Размер потока : 11,0 Гбайт (97%)
Библиотека кодирования : x264 core 148 r2623 d5b2374
Настройки программы : cabac=1 / ref=4 / deblock=1:-1:-1 / analyse=0x3:0x133 / me=umh / subme=9 / psy=1 / psy_rd=1.00:0.15 / mixed_ref=1 / me_range=24 / chroma_me=1 / trellis=2 / 8x8dct=1 / cqm=0 / deadzone=21,11 / fast_pskip=1 / chroma_qp_offset=-3 / threads=25 / lookahead_threads=4 / sliced_threads=0 / nr=150 / decimate=1 / interlaced=0 / bluray_compat=0 / constrained_intra=0 / bframes=8 / b_pyramid=2 / b_adapt=2 / b_bias=0 / direct=3 / weightb=1 / open_gop=0 / weightp=2 / keyint=120 / keyint_min=61 / scenecut=0 / intra_refresh=0 / rc_lookahead=120 / rc=crf / mbtree=1 / crf=18.0 / qcomp=0.60 / qpmin=0 / qpmax=69 / qpstep=4 / vbv_maxrate=15000 / vbv_bufsize=31250 / crf_max=0.0 / nal_hrd=vbr / filler=0 / ip_ratio=1.40 / aq=3:1.00
Default : Да
Forced : Нет
Цветовой диапазон : Limited
Основные цвета : BT.709
Характеристики трансфера : BT.709
Коэффициенты матрицы : BT.709
Аудио #1
Идентификатор : 2
Формат : AC-3
Формат/Информация : Audio Coding 3
Расширение режима : CM (complete main)
Параметр Endianness формата : Big
Идентификатор кодека : A_AC3
Продолжительность : 1 ч. 51 м.
Вид битрейта : Постоянный
Битрейт : 192 Кбит/сек
Каналы : 2 канала
Расположение каналов : Front: L R
Частота : 48,0 КГц
Частота кадров : 31,250 кадров/сек (1536 spf)
Битовая глубина : 16 бит
Метод сжатия : С потерями
Размер потока : 153 Мбайт (1%)
Заголовок : VO
Язык : Russian
Default : Да
Forced : Нет
Аудио #2
Идентификатор : 3
Формат : E-AC-3
Формат/Информация : Enhanced Audio Coding 3
Параметр Endianness формата : Big
Идентификатор кодека : A_EAC3
Продолжительность : 1 ч. 50 м.
Вид битрейта : Постоянный
Битрейт : 224 Кбит/сек
Каналы : 2 канала
Расположение каналов : Front: L R
Частота : 48,0 КГц
Частота кадров : 187,500 кадров/сек (256 spf)
Метод сжатия : С потерями
Размер потока : 178 Мбайт (2%)
Язык : English
Default : Нет
Forced : Нет
Текст #1
Идентификатор : 4
Формат : UTF-8
Идентификатор кодека : S_TEXT/UTF8
Идентификатор кодека/Информация : UTF-8 Plain Text
Продолжительность : 1 ч. 49 м.
Битрейт : 154 бит/сек
Count of elements : 1656
Размер потока : 124 Кбайт (0%)
Заголовок : SRT
Язык : Russian
Default : Нет
Forced : Нет
Текст #2
Идентификатор : 5
Формат : UTF-8
Идентификатор кодека : S_TEXT/UTF8
Идентификатор кодека/Информация : UTF-8 Plain Text
Продолжительность : 1 ч. 48 м.
Битрейт : 85 бит/сек
Count of elements : 1657
Размер потока : 67,5 Кбайт (0%)
Заголовок : SRT
Язык : English
Default : Нет
Forced : Нет
Меню
00:00:00.000 : en:Chapter 01
00:01:45.110 : en:Chapter 02
00:03:35.059 : en:Chapter 03
00:07:16.958 : en:Chapter 04
00:11:52.164 : en:Chapter 05
00:15:22.092 : en:Chapter 06
00:19:04.367 : en:Chapter 07
00:24:31.878 : en:Chapter 08
00:27:27.061 : en:Chapter 09
00:30:35.592 : en:Chapter 10
00:33:17.137 : en:Chapter 11
00:36:12.321 : en:Chapter 12
00:39:44.293 : en:Chapter 13
00:43:02.376 : en:Chapter 14
00:45:46.882 : en:Chapter 15
00:47:59.896 : en:Chapter 16
00:54:27.053 : en:Chapter 17
00:58:03.863 : en:Chapter 18
01:02:24.220 : en:Chapter 19
01:06:07.663 : en:Chapter 20
01:10:45.329 : en:Chapter 21
01:15:37.177 : en:Chapter 22
01:21:15.115 : en:Chapter 23
01:25:48.777 : en:Chapter 24
01:27:48.903 : en:Chapter 25
01:32:06.465 : en:Chapter 26
01:34:06.466 : en:Chapter 27
01:36:54.642 : en:Chapter 28
01:41:52.246 : en:Chapter 29
01:44:57.440 : en:Chapter 30
01:49:16.462 : en:Chapter 31


_________________
Проголосуй за трекер Открытый торрент трекер - RUS-MEDIA.ORG

Проголосуй Открытый торрент трекер - RUS-MEDIA.ORG


Вернуться к началу
 Профиль Отправить личное сообщение  
 
   Похожие торренты   Автор   Торрент   Размер 
В этой теме нет новых непрочитанных сообщений. Это началось в Неаполе / It Started in Naples [комедия, мелодрама, 1960] WEBRip 1080p, Mvo

salma3

35 | 28

10.81 ГБ

В этой теме нет новых непрочитанных сообщений. Мышиная возня / The Rat Race [драма, мелодрама, комедия, 1960] WEBRip-AVC, Dvo

salma3

106 | 29

1.7 ГБ

В этой теме нет новых непрочитанных сообщений. Самый дурацкий корабль в армии / The Wackiest Ship in the Army [комедия, военный, 1960] WEBRip 1080p, Mvo

salma3

41 | 15

10.28 ГБ

В этой теме нет новых непрочитанных сообщений. Кудряшка Сью / Curly Sue [драма, мелодрама, комедия, семейный, 1991] WEBRip 1080p, Dub

salma3

35 | 37

11.52 ГБ

В этой теме нет новых непрочитанных сообщений. Дыхание скандала / A Breath of Scandal [комедия, мелодрама, 1960] WEB-DL 1080p, Mvo

salma3

1 | 1

10.35 ГБ

В этой теме нет новых непрочитанных сообщений. Моя мама русалка / Fishtales [Семейный, комедия, приключения, 2007] WEBRip 1080p, Mvo+Sub

salma3

197 | 96

3.42 ГБ

В этой теме нет новых непрочитанных сообщений. Богатенький Ричи / Richie Rich [комедия, семейный, 1994] WEBRip 1080p, Dub+Mvo+Dvo+Avo+Sub

salma3

44 | 25

9.44 ГБ


Начать новую тему Ответить на тему  [ 1 сообщение ] 




Для Мосгорсуда, Роскомнадзора и рекламодателей:: mosgorsud-torrent[собачка]yandex.ru
cron