Торрент файл
скачать торрент магнет ссылка Добавлен: 19 фев 2017, 22:04
Размер: 11.04 ГБ
Сидеров: 51
Личеров: 44
Статус: (salma3)
Автор

СообщениеДобавлено: 19 фев 2017, 22:04 

Не в сети
Супермодератор
Аватара пользователя
Дата регистрации:
15 фев 2012, 16:44
Возраст: 28
Спасибо: 7061 / 2147
Сообщения: 59170
Информация о фильме
Год выхода: 2001
Жанр: Комедия, боевик
Режиссер: Джоэл Шумахер

В ролях: Крис Рок, Энтони Хопкинс, Керри Вашигтон, Брук Смит, Гарселл Бьювайс, Ших Уигхэм, Майкл Или, Петер Стормаре, Гэбриел Махт, Адони Маропис, Гарсель Бове, Драган Мичанович, Джон Слэттери, Брук Смит,

О фильме:
Два опытных высококлассных агента ЦРУ Гейлорд Оакес и Кевин Поп выдают себя за покупателей русской бомбы. Но их секретная операция проходит не так успешно, как ожидалось. Кевин Поп убит. Чтобы смерть Кевина осталась незамеченной и операция не сорвалась, ЦРУ вербует брата-близнеца Кевина, Джейка Хейеса (Крис Рок). Всего за девять дней агент Оакес должен сделать из Джейка копию его погибшего брата. Но все осложняется тем, что братья не знали друг друга, у них абсолютно разные характеры, да и росли они в совершенно разных условиях. Кевин вырос в хорошей семье, окончил колледж, а детство Джейка прошло в бедных приемных семьях. Теперь всего за девять дней Джейк должен стать настоящим шпионом, таким же, каким был его погибший брат. Но что из этого получится?



Страна: США, Чехия
Продолжительность: 01:56:49
Перевод: Дублированный, профессиональный (многоголосый закадровый), авторский (одноголосый закадровый)

Файл
Контейнер: mkv
Видео: MPEG-4 AVC / 10800 kbps / 1920x1080 / 23.976 fps / 16:9 / High Profile 4.0 (STARZ)
Звук:
Russian / Dolby Digital Audio / 5.1 / 48 kHz / 384 kbps (дубляж)
Russian / Dolby Digital Audio / 5.1 / 48 kHz / 384 kbps (MVO)
Russian / Dolby Digital Audio / 2.0 / 48 kHz / 192 kbps (MVO - 1-й канал)
Russian / Dolby Digital Audio / 2.0 / 48 kHz / 192 kbps (Андрей Гаврилов)
Russian / Dolby Digital Audio / 5.1 / 48 kHz / 640 kbps (Петр Гланц)
English / Dolby Digital Audio / 5.1 / 48 kHz / 640 kbps
Субтитры: Russian, English

Релиз от::

*- спасибо miha2154 за дорожку с озвучкой 1-го канала
*- За чистый голос Петра Гланца спасибо автору.
*- Дорожка №5 получена наложением чистого голоса на центральный канал оригинала.
*- Работа с аудиодорожками и синхронизация - дамбо
General
Complete name : BD_CMPN_2002_1080p_WEBRip -BLUEBIRD.mkv
Format : Matroska
Format version : Version 4 / Version 2
File size : 11.0 GiB
Duration : 1h 56mn
Overall bit rate mode : Variable
Overall bit rate : 13.5 Mbps
Movie name : BD_CMPN_2002_1080p_WEBRip -BLUEBIRD
Encoded date : UTC 2017-02-07 14:52:52
Writing application : mkvmerge v8.5.1 ('Where you lead I will follow') 64bit
Writing library : libebml v1.3.3 + libmatroska v1.4.4
DURATION : 01:50:45.395000000
NUMBER_OF_FRAMES : 1335
NUMBER_OF_BYTES : 77698
_STATISTICS_WRITING_APP : mkvmerge v8.5.1 ('Where you lead I will follow') 64bit
_STATISTICS_WRITING_DATE_UT : 2017-02-07 14:52:52
_STATISTICS_TAGS : BPS DURATION NUMBER_OF_FRAMES NUMBER_OF_BYTES

Video
ID : 1
Format : AVC
Format/Info : Advanced Video Codec
Format profile : High@L4
Format settings, CABAC : Yes
Format settings, ReFrames : 4 frames
Codec ID : V_MPEG4/ISO/AVC
Duration : 1h 56mn
Bit rate mode : Variable
Bit rate : 10.8 Mbps
Maximum bit rate : 15.0 Mbps
Width : 1 920 pixels
Height : 1 080 pixels
Display aspect ratio : 16:9
Frame rate mode : Constant
Frame rate : 23.976 fps
Color space : YUV
Chroma subsampling : 4:2:0
Bit depth : 8 bits
Scan type : Progressive
Bits/(Pixel*Frame) : 0.218
Stream size : 8.84 GiB (80%)
Writing library : x264 core 148 r2623 d5b2374
Encoding settings : cabac=1 / ref=4 / deblock=1:-1:-1 / analyse=0x3:0x133 / me=umh / subme=9 / psy=1 / psy_rd=1.00:0.15 / mixed_ref=1 / me_range=24 / chroma_me=1 / trellis=2 / 8x8dct=1 / cqm=0 / deadzone=21,11 / fast_pskip=1 / chroma_qp_offset=-3 / threads=34 / lookahead_threads=5 / sliced_threads=0 / nr=150 / decimate=1 / interlaced=0 / bluray_compat=0 / constrained_intra=0 / bframes=8 / b_pyramid=2 / b_adapt=2 / b_bias=0 / direct=3 / weightb=1 / open_gop=0 / weightp=2 / keyint=120 / keyint_min=61 / scenecut=0 / intra_refresh=0 / rc_lookahead=120 / rc=crf / mbtree=1 / crf=18.0 / qcomp=0.60 / qpmin=0 / qpmax=69 / qpstep=4 / vbv_maxrate=15000 / vbv_bufsize=31250 / crf_max=0.0 / nal_hrd=vbr / filler=0 / ip_ratio=1.40 / aq=3:1.00
Language : English
Default : Yes
Forced : No
Color range : Limited
Color primaries : BT.709
Transfer characteristics : BT.709
Matrix coefficients : BT.709

Audio #1
ID : 2
Format : AC-3
Format/Info : Audio Coding 3
Mode extension : CM (complete main)
Format settings, Endianness : Big
Codec ID : A_AC3
Duration : 1h 56mn
Bit rate mode : Constant
Bit rate : 384 Kbps
Channel(s) : 6 channels
Channel positions : Front: L C R, Side: L R, LFE
Sampling rate : 48.0 KHz
Compression mode : Lossy
Stream size : 321 MiB (3%)
Title : Дубляж
Language : Russian
Default : Yes
Forced : No

Audio #2
ID : 3
Format : AC-3
Format/Info : Audio Coding 3
Mode extension : CM (complete main)
Format settings, Endianness : Big
Codec ID : A_AC3
Duration : 1h 56mn
Bit rate mode : Constant
Bit rate : 384 Kbps
Channel(s) : 6 channels
Channel positions : Front: L C R, Side: L R, LFE
Sampling rate : 48.0 KHz
Compression mode : Lossy
Stream size : 321 MiB (3%)
Title : Многоголосый
Language : Russian
Default : No
Forced : No

Audio #3
ID : 4
Format : AC-3
Format/Info : Audio Coding 3
Mode extension : CM (complete main)
Format settings, Endianness : Big
Codec ID : A_AC3
Duration : 1h 56mn
Bit rate mode : Constant
Bit rate : 192 Kbps
Channel(s) : 2 channels
Channel positions : Front: L R
Sampling rate : 48.0 KHz
Compression mode : Lossy
Stream size : 160 MiB (1%)
Title : Многоголосый, 1 канал
Language : Russian
Default : No
Forced : No

Audio #4
ID : 5
Format : AC-3
Format/Info : Audio Coding 3
Mode extension : CM (complete main)
Format settings, Endianness : Big
Codec ID : A_AC3
Duration : 1h 56mn
Bit rate mode : Constant
Bit rate : 192 Kbps
Channel(s) : 2 channels
Channel positions : Front: L R
Sampling rate : 48.0 KHz
Compression mode : Lossy
Stream size : 160 MiB (1%)
Title : Авторский, Андрей Гаврилов
Language : Russian
Default : No
Forced : No

Audio #5
ID : 6
Format : AC-3
Format/Info : Audio Coding 3
Mode extension : CM (complete main)
Format settings, Endianness : Big
Codec ID : A_AC3
Duration : 1h 56mn
Bit rate mode : Constant
Bit rate : 640 Kbps
Channel(s) : 6 channels
Channel positions : Front: L C R, Side: L R, LFE
Sampling rate : 48.0 KHz
Compression mode : Lossy
Stream size : 535 MiB (5%)
Title : Одноголосый, Петр Гланц
Language : Russian
Default : No
Forced : No

Audio #6
ID : 7
Format : AC-3
Format/Info : Audio Coding 3
Mode extension : CM (complete main)
Format settings, Endianness : Big
Codec ID : A_AC3
Duration : 1h 56mn
Bit rate mode : Constant
Bit rate : 640 Kbps
Channel(s) : 6 channels
Channel positions : Front: L C R, Side: L R, LFE
Sampling rate : 48.0 KHz
Compression mode : Lossy
Stream size : 535 MiB (5%)
Title : Оригинал
Language : English
Default : No
Forced : No

Text #1
ID : 8
Format : UTF-8
Codec ID : S_TEXT/UTF8
Codec ID/Info : UTF-8 Plain Text
Language : Russian
Default : Yes
Forced : No

Text #2
ID : 9
Format : UTF-8
Codec ID : S_TEXT/UTF8
Codec ID/Info : UTF-8 Plain Text
Language : English
Default : No
Forced : No

Menu
00:00:00.000 : en: Opening Credits
00:07:37.000 : en: A New Identity
00:19:38.000 : en: The Transformation
00:27:37.000 : en: The Test
00:35:53.000 : en: Finding Jake
00:40:15.000 : en: Getting Serious About the Truth
00:45:45.000 : en: Welcome to Prague
00:49:10.000 : en: The Meeting
00:53:35.000 : en: Don't Cheat, Just Eat
01:06:28.000 : en: Checking Out the Merchandise
01:14:58.000 : en: Code Red
01:23:39.000 : en: Dangling a Worm on a Hook
01:26:59.000 : en: Julie's Abduction
01:31:55.000 : en: Moving the Pawn
01:38:04.000 : en: Grand Central Station
01:47:44.000 : en: Book of Forgotten Heroes/End Credits


_________________
Проголосуй за трекер Открытый торрент трекер - RUS-MEDIA.ORG

Проголосуй Открытый торрент трекер - RUS-MEDIA.ORG


Вернуться к началу
 Профиль Отправить личное сообщение  
 
   Похожие торренты   Автор   Торрент   Размер 
В этой теме нет новых непрочитанных сообщений. Плохая компания / Bad Company [Комедия, боевик, 2001] WEBRip 720p, Dub+Mvo+Avo+Sub

salma3

0 | 73

5.76 ГБ

В этой теме нет новых непрочитанных сообщений. Компания негодяев / Badmaash Company [Криминал, драма, комедия, 2010] BDRip 1080p, Mvo+Sub

salma3

17 | 2

7.31 ГБ

В этой теме нет новых непрочитанных сообщений. Крутая компания / In Good Company [Комедия, мелодрама, драма, 2004] BDRip 1080р, Mvo

salma3

1 | 2

9.54 ГБ

В этой теме нет новых непрочитанных сообщений. Беспутная компания / Fast Company [драма, спорт, 1979] BDRip, Avo

salma3

0 | 0

1.45 ГБ

В этой теме нет новых непрочитанных сообщений. Мексиканец / The Mexican [Боевик, комедия, мелодрама, 2001] WEBRip 1080p, Dub [Open Matte]

salma3

0 | 0

6.18 ГБ

В этой теме нет новых непрочитанных сообщений. Three's Company / Тройная компания (DDF Productions) [2012 г., Anal, Cum Swapping, Facial Cumshot, Interracial, Threesome, WEB-DL, 540p] (Split Scenes)

salma3

0 | 0

2.46 ГБ

В этой теме нет новых непрочитанных сообщений. Животное / The Animal [комедия, 2001] WEBRip 1080p, Dub+Mvo+Sub

salma3

60 | 20

9.12 ГБ


Начать новую тему Ответить на тему  [ 1 сообщение ] 




Для Мосгорсуда, Роскомнадзора и рекламодателей:: mosgorsud-torrent[собачка]yandex.ru
cron