Торрент файл
скачать торрент магнет ссылка Добавлен: 22 мар 2017, 13:04
Размер: 9.85 ГБ
Сидеров: 257
Личеров: 56
Статус: (salma3)
Автор

СообщениеДобавлено: 19 фев 2017, 17:15 

Не в сети
Супермодератор
Аватара пользователя
Дата регистрации:
15 фев 2012, 16:44
Возраст: 28
Спасибо: 6569 / 2137
Сообщения: 43777
Год выпуска: 2016
Жанр: мультфильм, мюзикл, фэнтези, комедия
Режиссер: Рон Клементс, Дон Холл, Джон Маскер

В ролях: Аулии Кравалхо, Дуэйн Джонсон, Рэйчел Хаус, Темуэра Моррисон, Джемейн Клемент, Николь Шерзингер, Алан Тьюдик, Оскар Кайтли, Трой Поламалу, Пуанани Кравальо

Описание:
Бесстрашная Моана, дочь вождя маленького племени на острове в Тихом океане, больше всего на свете мечтает о приключениях и решает отправиться в опасное морское путешествие. Вместе с некогда могущественным полубогом Мауи им предстоит пересечь океан, сразиться со страшными чудовищами и разрушить древнее заклятие.



Страна: США
Продолжительность:01:47:13
Перевод: Профессиональный (полное дублирование)[Лицензия]

Формат: BDRip 1080p
Видео: MPEG-4 AVC, 1920x804, 11.0 Mbit/s, 23.976 fps
Аудио#01: 48 kHz, AC3, 5.1, 640 Kbps | Дублированный |
Аудио#02: 48 kHz, DTS, 5.1, 1510 kbps | Оригинал
Субтитры: Русские, английские

General
Unique ID : 189975302570695114103205099880705904832 (0x8EEBE9927D265B8C85EC42A0E06F50C0)
Complete name : C:UsersbattiDesktopMoana.2016.Lic.BDRip.1080p.ExKinoRay.mkv
Format : Matroska
Format version : Version 4 / Version 2
File size : 9.85 GiB
Duration : 1 h 47 min
Overall bit rate : 13.2 Mb/s
Encoded date : UTC 2017-03-22 08:11:06
Writing application : mkvmerge v8.3.0 ('Over the Horizon') 64bit
Writing library : libebml v1.3.1 + libmatroska v1.4.2

Video
ID : 1
Format : AVC
Format/Info : Advanced Video Codec
Format profile : High@L4.1
Format settings, CABAC : Yes
Format settings, ReFrames : 5 frames
Codec ID : V_MPEG4/ISO/AVC
Duration : 1 h 47 min
Bit rate : 11.0 Mb/s
Width : 1 920 pixels
Height : 804 pixels
Display aspect ratio : 2.40:1
Frame rate mode : Constant
Frame rate : 23.976 (24000/1001) FPS
Color space : YUV
Chroma subsampling : 4:2:0
Bit depth : 8 bits
Scan type : Progressive
Bits/(Pixel*Frame) : 0.297
Stream size : 8.24 GiB (84%)
Writing library : x264 core 142 r2431+42 c69a006 tMod [8-bit@all X86_64]
Encoding settings : cabac=1 / ref=5 / deblock=1:1:1 / analyse=0x3:0x113 / me=umh / subme=11 / psy=1 / fade_compensate=0.00 / psy_rd=0.40:0.00 / mixed_ref=1 / me_range=48 / chroma_me=1 / trellis=2 / 8x8dct=1 / cqm=0 / deadzone=21,11 / fast_pskip=0 / chroma_qp_offset=-2 / threads=16 / lookahead_threads=2 / sliced_threads=0 / nr=0 / decimate=0 / interlaced=0 / bluray_compat=0 / constrained_intra=0 / fgo=0 / bframes=8 / b_pyramid=2 / b_adapt=2 / b_bias=0 / direct=3 / weightb=1 / open_gop=0 / weightp=2 / keyint=240 / keyint_min=23 / scenecut=40 / intra_refresh=0 / rc_lookahead=150 / rc=2pass / mbtree=0 / bitrate=11000 / ratetol=1.0 / qcomp=0.60 / qpmin=0:0:0 / qpmax=69:69:69 / qpstep=4 / cplxblur=20.0 / qblur=0.5 / vbv_maxrate=62500 / vbv_bufsize=78125 / nal_hrd=none / filler=0 / ip_ratio=1.30 / pb_ratio=1.20 / aq=2:0.60 / aq-sensitivity=10.00 / aq-factor=1.00:1.00:1.00 / aq2=0 / aq3=0
Language : English
Default : Yes
Forced : No
Color range : Limited
Color primaries : BT.709
Transfer characteristics : BT.709
Matrix coefficients : BT.709

Audio #1
ID : 2
Format : AC-3
Format/Info : Audio Coding 3
Mode extension : CM (complete main)
Format settings, Endianness : Big
Codec ID : A_AC3
Duration : 1 h 47 min
Bit rate mode : Constant
Bit rate : 640 kb/s
Channel(s) : 6 channels
Channel positions : Front: L C R, Side: L R, LFE
Sampling rate : 48.0 kHz
Frame rate : 31.250 FPS (1536 spf)
Bit depth : 16 bits
Compression mode : Lossy
Stream size : 491 MiB (5%)
Title : Dub [license]
Language : Russian
Default : Yes
Forced : No

Audio #2
ID : 3
Format : DTS
Format/Info : Digital Theater Systems
Mode : 16
Format settings, Endianness : Big
Codec ID : A_DTS
Duration : 1 h 47 min
Bit rate mode : Constant
Bit rate : 1 509 kb/s
Channel(s) : 6 channels
Channel positions : Front: L C R, Side: L R, LFE
Sampling rate : 48.0 kHz
Frame rate : 93.750 FPS (512 spf)
Bit depth : 24 bits
Compression mode : Lossy
Stream size : 1.13 GiB (11%)
Title : Original
Language : English
Default : No
Forced : No

Text #1
ID : 4
Format : UTF-8
Codec ID : S_TEXT/UTF8
Codec ID/Info : UTF-8 Plain Text
Duration : 1 h 45 min
Bit rate : 70 b/s
Count of elements : 1236
Stream size : 54.3 KiB (0%)
Title : Full-length
Language : Russian
Default : No
Forced : No

Text #2
ID : 5
Format : UTF-8
Codec ID : S_TEXT/UTF8
Codec ID/Info : UTF-8 Plain Text
Duration : 1 h 45 min
Bit rate : 44 b/s
Count of elements : 1246
Stream size : 34.7 KiB (0%)
Title : Full-length
Language : English
Default : No
Forced : No

Text #3
ID : 6
Format : UTF-8
Codec ID : S_TEXT/UTF8
Codec ID/Info : UTF-8 Plain Text
Duration : 1 h 45 min
Bit rate : 47 b/s
Count of elements : 1346
Stream size : 36.6 KiB (0%)
Title : SDH
Language : English
Default : No
Forced : No

Menu
00:00:00.000 : en:00:00:00.000
00:07:15.685 : en:00:07:15.685
00:11:59.802 : en:00:11:59.802
00:16:13.764 : en:00:16:13.764
00:21:29.580 : en:00:21:29.580
00:28:02.806 : en:00:28:02.806
00:32:11.346 : en:00:32:11.346
00:35:16.281 : en:00:35:16.281
00:41:36.869 : en:00:41:36.869
00:45:04.869 : en:00:45:04.869
00:49:10.322 : en:00:49:10.322
00:53:21.031 : en:00:53:21.031
00:57:33.325 : en:00:57:33.325
01:05:45.024 : en:01:05:45.024
01:10:46.075 : en:01:10:46.075
01:12:52.118 : en:01:12:52.118
01:15:41.954 : en:01:15:41.954
01:23:17.075 : en:01:23:17.075
01:29:50.927 : en:01:29:50.927
01:36:13.726 : en:01:36:13.726



_________________
Проголосуй за трекер Открытый торрент трекер - RUS-MEDIA.ORG

Проголосуй Открытый торрент трекер - RUS-MEDIA.ORG



реклама партнёра


Вернуться к началу
 Профиль Отправить личное сообщение  
 
   Похожие торренты   Автор   Торрент   Размер 
В этой теме нет новых непрочитанных сообщений. Моана / Moana [мультфильм, мюзикл, фэнтези, комедия, 2016] BDRip 720p, Dub+Sub [Лицензия]

salma3

124 | 16

4.8 ГБ

В этой теме нет новых непрочитанных сообщений. Моана / Moana [Мультфильм, мюзикл, фэнтези, 2016] Blu-Ray EUR 1080p, Dub+Sub [Лицензия]

salma3

18 | 48

41.46 ГБ

В этой теме нет новых непрочитанных сообщений. Моана / Moana [мультфильм, мюзикл, фэнтези, 2016] BDRip, Dub [Лицензия]

salma3

605 | 37

1.46 ГБ

В этой теме нет новых непрочитанных сообщений. Моана / Moana [мультфильм, мюзикл, фэнтези, 2016] BDRip-AVC, Dub+Sub [Лицензия]

salma3

540 | 94

2.91 ГБ

В этой теме нет новых непрочитанных сообщений. Моана / Moana [Мультфильм, мюзикл, фэнтези, 2016] Blu-Ray 1080p, Dub+Sub [3D-Video] [Лицензия]

salma3

18 | 46

41.2 ГБ

В этой теме нет новых непрочитанных сообщений. Моана / Moana (Мультфильм, мюзикл, фэнтези, комедия, приключения, семейный, полнометражный, 2016) BDRip-AVC от OlLanDGroup | iTunes Russia

marya111

423 | 79

745.69 МБ

В этой теме нет новых непрочитанных сообщений. Моана / Moana (мультфильм, мюзикл, фэнтези, комедия, приключения, семейный, 2016) TS | D

marya111

3968 | 438

1.37 ГБ


СообщениеДобавлено: 22 мар 2017, 13:04 

Не в сети
Супермодератор
Аватара пользователя
Дата регистрации:
15 фев 2012, 16:44
Возраст: 28
Спасибо: 6569 / 2137
Сообщения: 43777
salma3 писал(а):
Re: Моана / Moana [мультфильм, мюзикл, фэнтези, комедия, 2016] BDRip 1080p, Dub+Sub [Лицензия]

_________________
Проголосуй за трекер Открытый торрент трекер - RUS-MEDIA.ORG

Проголосуй Открытый торрент трекер - RUS-MEDIA.ORG


Вернуться к началу
 Профиль Отправить личное сообщение  
 
Начать новую тему Ответить на тему  [ Сообщений: 2 ] 




Для Мосгорсуда, Роскомнадзора и рекламодателей:: mosgorsud-torrent[собачка]yandex.ru
cron