Торрент файл
скачать торрент магнет ссылка Добавлен: 19 фев 2017, 16:33
Размер: 3.87 ГБ
Сидеров: 676
Личеров: 124
Автор

СообщениеДобавлено: 19 фев 2017, 16:33 

Не в сети
Дата регистрации:
28 сен 2016, 18:10
Спасибо: 211 / 0
Сообщения: 1999
Год выпуска: 2016
Страна: Австралия, США
Жанр: драма, военный, история
Продолжительность: 02:19:19
Перевод: Авторский (одноголосый, закадровый) [Дмитрий Есарев]
Субтитры: нет
Режиссер: Мэл Гибсон / Mel Gibson
В ролях: Эндрю Гарфилд, Сэм Уортингтон, Тереза Палмер, Люк Брейси, Винс Вон, Хьюго Уивинг, Рэйчел Гриффитс, Натаниэль Бузолич, Ричард Роксбург, Фирэсс Дирани
Описание: Медик Американской армии времён Второй Мировой войны Дезмонд Досс, который служил во время битвы за Окинаву, отказывается убивать людей и становится первым идейным уклонистом в американской истории, удостоенным Медали Почёта.
Качество видео: BDRip 720p
Формат видео: MKV
Видео: 1280х534, 23.976 fps, AVC ~3449 kbps avg
Аудио: 48 kHz, AC3 Dolby Digital, 3/2 (L,C,R,l,r) + LFE ch, ~448 kbps
Релиз от:



По соображениям совестиHacksaw.Ridge.2016.720p_BDRip_[scarabey.org].mkv
Format : Matroska
Format version : Version 4 / Version 2
File size : 3.87 GiB
Duration : 2h 19mn
Overall bit rate : 3 976 Kbps
Movie name : Hacksaw Ridge 2016 720p BluRay DD5.1 x264-HDS
Encoded date : UTC 2017-02-16 17:00:04
Writing application : mkvmerge v6.1.0 ('Old Devil') built on Mar 4 2013 09:10:42
Writing library : libebml v1.3.0 + libmatroska v1.4.0
Video
ID : 1
Format : AVC
Format/Info : Advanced Video Codec
Format profile : High@L4.1
Format settings, CABAC : Yes
Format settings, ReFrames : 12 frames
Codec ID : V_MPEG4/ISO/AVC
Duration : 2h 19mn
Bit rate : 3 449 Kbps
Width : 1 280 pixels
Height : 534 pixels
Display aspect ratio : 2.40:1
Frame rate mode : Constant
Frame rate : 23.976 fps
Color space : YUV
Chroma subsampling : 4:2:0
Bit depth : 8 bits
Scan type : Progressive
Bits/(Pixel*Frame) : 0.210
Stream size : 3.36 GiB (87%)
Title : 环环@HDSky
Writing library : x264 core 148 r2699+6+41 29a38aa Yuuki [8-bit@4:2:0 X86_64][GCC 5.3.0]
Encoding settings : cabac=1 / ref=12 / deblock=1:-3:-3 / analyse=0x3:0x113 / me=umh / subme=11 / psy=1 / fade_compensate=0.00 / psy_rd=1.00:0.05 / mixed_ref=1 / me_range=32 / chroma_me=1 / trellis=2 / 8x8dct=1 / cqm=0 / deadzone=21,11 / fast_pskip=0 / chroma_qp_offset=-2 / threads=24 / lookahead_threads=4 / sliced_threads=0 / nr=0 / decimate=1 / interlaced=0 / bluray_compat=0 / constrained_intra=0 / fgo=0 / bframes=8 / b_pyramid=2 / b_adapt=2 / b_bias=0 / direct=3 / weightb=1 / open_gop=0 / weightp=2 / keyint=250 / keyint_min=23 / scenecut=40 / intra_refresh=0 / rc=crf / mbtree=0 / crf=16.5000 / qcomp=0.60 / qpmin=0:0:0 / qpmax=69:69:69 / qpstep=4 / ip_ratio=1.40 / pb_ratio=1.30 / aq=3:0.90
Default : Yes
Forced : No
Audio
ID : 2
Format : AC-3
Format/Info : Audio Coding 3
Mode extension : CM (complete main)
Format settings, Endianness : Big
Codec ID : A_AC3
Duration : 2h 19mn
Bit rate mode : Constant
Bit rate : 448 Kbps
Channel(s) : 6 channels
Channel positions : Front: L C R, Side: L R, LFE
Sampling rate : 48.0 KHz
Bit depth : 16 bits
Compression mode : Lossy
Stream size : 446 MiB (11%)
Title : Есарев
Language : Russian
Default : Yes
Forced : No
Menu
00:00:00.000 : en:00:00:00.000
00:09:18.766 : en:00:09:18.766
00:18:41.996 : en:00:18:41.996
00:26:34.510 : en:00:26:34.510
00:33:00.562 : en:00:33:00.562
00:40:04.152 : en:00:40:04.152
00:50:07.212 : en:00:50:07.212
00:57:01.543 : en:00:57:01.543
01:04:21.649 : en:01:04:21.649
01:17:50.207 : en:01:17:50.207
01:23:58.700 : en:01:23:58.700
01:31:21.726 : en:01:31:21.726
01:39:02.812 : en:01:39:02.812
01:46:07.569 : en:01:46:07.569
01:59:48.306 : en:01:59:48.306
02:07:13.292 : en:02:07:13.292




реклама партнёра


Вернуться к началу
 Профиль Отправить личное сообщение  
 
   Похожие торренты   Автор   Торрент   Размер 
В этой теме нет новых непрочитанных сообщений. По соображениям совести / Hacksaw Ridge ( драма, военный, история, 2016) BDRip 720p от New-Team | L

marya111

1365 | 538

7.12 ГБ

В этой теме нет новых непрочитанных сообщений. По соображениям совести / Hacksaw Ridge [драма, военный, история, 2016] BDRip, Mvo

salma3

840 | 287

2.18 ГБ

В этой теме нет новых непрочитанных сообщений. По соображениям совести / Hacksaw Ridge [драма, военный, история, 2016] BDRip-AVC, Dub+Sub [iTunes]

salma3

292 | 96

1.51 ГБ

В этой теме нет новых непрочитанных сообщений. По соображениям совести / Hacksaw Ridge [драма, военный, история, 2016] BDRip-AVC, Dub+Sub [iTunes]

salma3

98 | 51

2.23 ГБ

В этой теме нет новых непрочитанных сообщений. По соображениям совести / Hacksaw Ridge (драма, военный, история, 2016) BDRip 1080p | L, A

marya111

827 | 385

9 ГБ

В этой теме нет новых непрочитанных сообщений. По соображениям совести / Hacksaw Ridge [драма, военный, история, 2016] BDRip, Dub [iTunes]

salma3

103 | 43

2.12 ГБ

В этой теме нет новых непрочитанных сообщений. По соображениям совести / Hacksaw Ridge [драма, военный, история, 2016] BDRip, Dub+Sub [iTunes]

salma3

2478 | 883

1.46 ГБ


Начать новую тему Ответить на тему  [ 1 сообщение ] 




Для Мосгорсуда, Роскомнадзора и рекламодателей:: mosgorsud-torrent[собачка]yandex.ru