Торрент файл
скачать торрент магнет ссылка Добавлен: 18 фев 2017, 22:02
Размер: 6.64 ГБ
Сидеров: 10
Личеров: 6
Статус: (salma3)
Автор

СообщениеДобавлено: 18 фев 2017, 22:02 

В сети
Супермодератор
Аватара пользователя
Дата регистрации:
15 фев 2012, 16:44
Возраст: 29
Спасибо: 7377 / 2147
Сообщения: 75732
Год выпуска: 2003
Жанр: боевик, триллер, криминал
Режиссер: Роберт Родригес

В ролях: Антонио Бандерас, Сальма Хайек, Джонни Депп, Микки Рурк, Ева Мендес, Дэнни Трехо, Энрике Иглесиас, Марко Леонарди, Чич Марин, Рубен Бладес, Уиллем Дефо

Описание: Этот фильм — продолжение истории о гитаристе Эль Марьячи. На этот раз он пытается помешать могущественному наркобарону Баррильо свергнуть президента Мексики.
Это задание он получает от продажного агента ЦРУ Сэндса, который не хочет рисковать собственной жизнью ради спасения жизни главы чужого государства. Приключения Эль Марьячи начинаются на фоне грядущей революции, всеобщей неразберихи и кровной мести.
Главный герой, ставший известным благодаря превосходной игре Антонио Бандераса, великолепно справляется как с гитарой, так и с пистолетом и, несмотря на все трудности и раны, всегда добивается успеха.



Страна: США
Продолжительность: 01:41:42
Перевод: Профессиональный (полное дублирование)
Субтитры: Русские, английские

Формат: BDRip 720p
Видео: 1280x720p (16:9), 23.976 fps, AVC MPEG-4 (H.264), ~6002 kbps, 0.272 bit/pixel
Аудио1: Русский: 48 kHz, AC3 Dolby Digital, 6 ch, ~448 kbps
Аудио2: Русский: 48 kHz, AC3 Dolby Digital, 6 ch, ~448 kbps
Аудио3: Русский: 48 kHz, DTS, 6 ch, ~755 kbps
Аудио4: Английский: 48 kHz, DTS, 6 ch, ~1510 kbps

General
Complete name : J:\Once.Upon.a.Time.in.Mexico.2003.720p.Bluray.x264.mkv
Format : Matroska
File size : 6.64 GiB
Duration : 1h 41mn
Overall bit rate : 9 348 Kbps
Movie name : Once.Upon.a.Time.in.Mexico.2003.720p.Bluray.x264.DTS-WiK
Encoded date : UTC 2010-12-28 10:48:34
Writing application : mkvmerge v3.2.0 ('Beginnings') built on Feb 12 2010 16:46:17
Writing library : libebml v0.7.9 + libmatroska v0.8.1

Video
ID : 1
Format : AVC
Format/Info : Advanced Video Codec
Format profile :
Format settings, CABAC : Yes
Format settings, ReFrames : 9 frames
Muxing mode : Container profile=Unknown@4.1
Codec ID : V_MPEG4/ISO/AVC
Duration : 1h 41mn
Bit rate : 6 002 Kbps
Nominal bit rate : 6 185 Kbps
Width : 1 280 pixels
Height : 720 pixels
Display aspect ratio : 16:9
Frame rate : 23.976 fps
Resolution : 8 bits
Colorimetry : 4:2:0
Scan type : Progressive
Bits/(Pixel*Frame) : 0.272
Stream size : 4.26 GiB (64%)
Writing library : x264 core 104 r1713 c276662
Encoding settings : cabac=1 / ref=9 / deblock=1:-3:-3 / analyse=0x3:0x113 / me=esa / subme=10 / psy=1 / psy_rd=1.03:0.02 / mixed_ref=1 / me_range=32 / chroma_me=1 / trellis=2 / 8x8dct=1 / cqm=0 / deadzone=21,11 / fast_pskip=0 / chroma_qp_offset=-5 / threads=12 / sliced_threads=0 / nr=0 / decimate=0 / interlaced=0 / constrained_intra=0 / bframes=5 / b_pyramid=2 / b_adapt=2 / b_bias=0 / direct=3 / weightb=1 / open_gop=0 / weightp=2 / keyint=250 / keyint_min=23 / scenecut=40 / intra_refresh=0 / rc_lookahead=50 / rc=2pass / mbtree=1 / bitrate=6185 / ratetol=1.0 / qcomp=0.60 / qpmin=10 / qpmax=51 / qpstep=4 / cplxblur=20.0 / qblur=0.5 / vbv_maxrate=40000 / vbv_bufsize=40000 / ip_ratio=1.40 / aq=2:0.80 / nal_hrd=none
Language : English

Audio #1
ID : 2
Format : AC-3
Format/Info : Audio Coding 3
Codec ID : A_AC3
Duration : 1h 41mn
Bit rate mode : Constant
Bit rate : 448 Kbps
Channel(s) : 6 channels
Channel positions : Front: L C R, Surround: L R, LFE
Sampling rate : 48.0 KHz
Stream size : 326 MiB (5%)
Title : дубляж
Language : Russian

Audio #2
ID : 3
Format : AC-3
Format/Info : Audio Coding 3
Codec ID : A_AC3
Duration : 1h 41mn
Bit rate mode : Constant
Bit rate : 448 Kbps
Channel(s) : 6 channels
Channel positions : Front: L C R, Surround: L R, LFE
Sampling rate : 48.0 KHz
Stream size : 326 MiB (5%)
Title : профессиональный многоголосый
Language : Russian

Audio #3
ID : 4
Format : DTS
Format/Info : Digital Theater Systems
Codec ID : A_DTS
Duration : 1h 41mn
Bit rate mode : Constant
Bit rate : 755 Kbps
Channel(s) : 6 channels
Channel positions : Front: L C R, Surround: L R, LFE
Sampling rate : 48.0 KHz
Resolution : 24 bits
Stream size : 549 MiB (8%)
Title : авторский (Юрий Живов)
Language : Russian

Audio #4
ID : 5
Format : DTS
Format/Info : Digital Theater Systems
Codec ID : A_DTS
Duration : 1h 41mn
Bit rate mode : Constant
Bit rate : 1 510 Kbps
Channel(s) : 6 channels
Channel positions : Front: L C R, Surround: L R, LFE
Sampling rate : 48.0 KHz
Resolution : 24 bits
Stream size : 1.07 GiB (16%)
Language : English

Text #1
ID : 6
Format : UTF-8
Codec ID : S_TEXT/UTF8
Codec ID/Info : UTF-8 Plain Text
Title : на испанскую речь
Language : Russian

Text #2
ID : 7
Format : UTF-8
Codec ID : S_TEXT/UTF8
Codec ID/Info : UTF-8 Plain Text
Title : полные
Language : Russian

Text #3
ID : 8
Format : UTF-8
Codec ID : S_TEXT/UTF8
Codec ID/Info : UTF-8 Plain Text
Title : английские
Language : English





_________________
Проголосуй за трекер Открытый торрент трекер - RUS-MEDIA.ORG

Проголосуй Открытый торрент трекер - RUS-MEDIA.ORG


Вернуться к началу
 Профиль Отправить личное сообщение  
 
   Похожие торренты   Автор   Торрент   Размер 
В этой теме нет новых непрочитанных сообщений. Отчаянный / Desperado [боевик, триллер, криминал, 1995] BDRip 720p, 2Mvo+3Avo+Sub

salma3

9 | 7

6.8 ГБ

В этой теме нет новых непрочитанных сообщений. Однажды в Китае / Once upon a time in China / Wong Fei Hung [Боевик, драма, приключения, история, 1991] BDRip 720p, Dvo

salma3

0 | 0

4.79 ГБ

В этой теме нет новых непрочитанных сообщений. Однажды в Тибете / Once Upon a Time in Tibet [драма, мелодрама, 2010] BDRip 720p, Avo

salma3

88 | 40

2.28 ГБ

В этой теме нет новых непрочитанных сообщений. Однажды в Америке / Once Upon a Time in America [Драма, криминал, гангстерский, 1984] BDRip 1080p, Mvo [Extended Cut]

salma3

33 | 12

17.66 ГБ

В этой теме нет новых непрочитанных сообщений. Отчаянный / Desperado [боевик, триллер, криминал, 1995] HDRip, Mvo

salma3

97 | 12

1.46 ГБ

В этой теме нет новых непрочитанных сообщений. Вне времени / Out of Time [триллер, драма, криминал, 2003] BDRip 1080p, Dub

salma3

13 | 15

13.32 ГБ

В этой теме нет новых непрочитанных сообщений. Вне времени / Out Of Time [триллер, драма, криминал, 2003] BDRip 1080p, Dub

salma3

169 | 28

5.77 ГБ


Начать новую тему Ответить на тему  [ 1 сообщение ] 




Для Мосгорсуда, Роскомнадзора и рекламодателей:: mosgorsud-torrent[собачка]yandex.ru
cron