Торрент файл
скачать торрент магнет ссылка Добавлен: 17 фев 2017, 23:03
Размер: 8.88 ГБ
Сидеров: 8
Личеров: 20
Статус: (salma3)
Автор

СообщениеДобавлено: 17 фев 2017, 23:03 

Не в сети
Супермодератор
Аватара пользователя
Дата регистрации:
15 фев 2012, 16:44
Возраст: 28
Спасибо: 6656 / 2146
Сообщения: 46014
Год выхода: 1956
Жанр: Драма, мелодрама
Режиссер: Даглас Сирк /Douglas Sirk

В ролях: Рок Хадсон, Лорен Бэколл, Роберт Стэк, Дороти Мэлоун, Роберт Кит, Грант Уильямс, Роберт Дж. Уилки, Эдвард Платт, Гарри Шэннон, Джон Ларч

О фильме: Кайл Хэдли — вечно все делающий неправильно сын техасского магната Джаспера Хэдли, чей клан начинает рушиться из-за его наследников, стремящихся ни к чему, кроме собственных удовольствий.



Страна: США
Продолжительность: 01:39:31
Перевод: Профессиональный (многоголосый, закадровый)
Cубтитры : Английский

Контейнер: MKV
Качество: BDRip 1080p
Видео: MPEG-4 AVC, High@L4.1, 11.1 Mb/s, 1 920 x 960, 23.976 fps
Аудио 1 : Русский (AC3, 2ch, 192 kb/s, 48.0 KHz) MVO
Аудио 2 : Английский (DTS, 2ch, 1 509 kb/s, 48.0 KHz)
Субтитры : English SRT

Навигация по главам: есть
Глобальные тэги: есть

Общее
Уникальный идентификатор : 215815172277847703927850099975233077679 (0xA25C7D829DD342BD89CBFD1D9AD201AF)
Полное имя : D:Слова, написанные на ветру Written on the Wind (1956).mkv
Формат : Matroska
Версия формата : Version 4 / Version 2
Размер файла : 8,88 Гбайт
Продолжительность : 1 ч. 39 м.
Общий поток : 12,8 Мбит/сек
Название фильма : Written on the Wind
Тип содержимого : Movie
Описание : The story of a decent love...that fought to live against the vice and immorality of an oil baron's wastrel family...and of the ugly secret that thrust their privates lives into public view!
Дата выпуска : 1956-12-01
Дата кодирования : UTC 2017-02-17 17:11:18
Программа кодирования : mkvmerge v9.8.0 ('Kuglblids') 64bit
Библиотека кодирования : libebml v1.3.4 + libmatroska v1.4.5
Обложка : Yes
Attachments : cover.jpg
ACTOR : Rock Hudson, Lauren Bacall, Robert Stack, Dorothy Malone, Robert Keith, Grant Williams, Robert J. Wilke, Edward Platt, Harry Shannon, John Larch, Joseph Granby, Roy Glenn, Maidie Norman, William Schallert, Joanne Jordan, Dani Crayne, Dorothy Porter
ARTIST : Rock Hudson, Lauren Bacall, Robert Stack, Dorothy Malone, Robert Keith, Grant Williams, Robert J. Wilke, Edward Platt, Harry Shannon, John Larch, Joseph Granby, Roy Glenn, Maidie Norman, William Schallert, Joanne Jordan, Dani Crayne, Dorothy Porter
DIRECTOR : Douglas Sirk
GENRE : Drama, Romance
PRODUCER : Albert Zugsmith
PRODUCTION_STUDIO : Universal International Pictures (UI)
SCREENPLAY_BY : George Zuckerman
SUMMARY : The story of a decent love...that fought to live against the vice and immorality of an oil baron's wastrel family...and of the ugly secret that thrust their privates lives into public view!
SYNOPSIS : A young woman marries into a corrupt oil family then falls for her husband's best friend.

Видео
Идентификатор : 1
Формат : AVC
Формат/Информация : Advanced Video Codec
Профиль формата : High@L4.1
Параметр CABAC формата : Да
Параметр ReFrames формата : 4 кадра
Идентификатор кодека : V_MPEG4/ISO/AVC
Продолжительность : 1 ч. 39 м.
Битрейт : 11,1 Мбит/сек
Ширина : 1920 пикселей
Высота : 960 пикселей
Соотношение сторон : 2,000
Режим частоты кадров : Переменный
Частота кадров : 23,976 (24000/1001) кадра/сек
Цветовое пространство : YUV
Субдискретизация насыщенности : 4:2:0
Битовая глубина : 8 бит
Тип развёртки : Прогрессивная
Бит/(Пиксели*Кадры) : 0.250
Размер потока : 7,69 Гбайт (87%)
Библиотека кодирования : x264 core 148 r2694 3b70645
Настройки программы : cabac=1 / ref=4 / deblock=1:-2:-2 / analyse=0x3:0x113 / me=umh / subme=8 / psy=1 / psy_rd=1.00:0.00 / mixed_ref=1 / me_range=16 / chroma_me=1 / trellis=1 / 8x8dct=1 / cqm=0 / deadzone=21,11 / fast_pskip=0 / chroma_qp_offset=-2 / threads=18 / lookahead_threads=3 / sliced_threads=0 / nr=0 / decimate=1 / interlaced=0 / bluray_compat=0 / constrained_intra=0 / bframes=3 / b_pyramid=2 / b_adapt=1 / b_bias=0 / direct=1 / weightb=1 / open_gop=0 / weightp=2 / keyint=250 / keyint_min=23 / scenecut=40 / intra_refresh=0 / rc_lookahead=40 / rc=2pass / mbtree=1 / bitrate=11065 / ratetol=1.0 / qcomp=0.60 / qpmin=0 / qpmax=69 / qpstep=4 / cplxblur=20.0 / qblur=0.5 / ip_ratio=1.40 / aq=1:1.00
Язык : English
Default : Да
Forced : Нет

Аудио #1
Идентификатор : 2
Формат : AC-3
Формат/Информация : Audio Coding 3
Расширение режима : CM (complete main)
Параметр Endianness формата : Big
Идентификатор кодека : A_AC3
Продолжительность : 1 ч. 39 м.
Вид битрейта : Постоянный
Битрейт : 192 Кбит/сек
Каналы : 2 канала
Расположение каналов : Front: L R
Частота : 48,0 КГц
Частота кадров : 31,250 кадров/сек (1536 spf)
Битовая глубина : 16 бит
Метод сжатия : С потерями
Размер потока : 137 Мбайт (2%)
Заголовок : MVO
Язык : Russian
Default : Да
Forced : Нет

Аудио #2
Идентификатор : 3
Формат : DTS
Формат/Информация : Digital Theater Systems
Режим : 16
Параметр Endianness формата : Big
Идентификатор кодека : A_DTS
Продолжительность : 1 ч. 39 м.
Вид битрейта : Постоянный
Битрейт : 1509 Кбит/сек
Каналы : 2 канала
Расположение каналов : Front: L R
Частота : 48,0 КГц
Частота кадров : 93,750 кадра/сек (512 spf)
Битовая глубина : 24 бит
Метод сжатия : С потерями
Размер потока : 1,05 Гбайт (12%)
Язык : English
Default : Нет
Forced : Нет

Текст
Идентификатор : 4
Формат : UTF-8
Идентификатор кодека : S_TEXT/UTF8
Идентификатор кодека/Информация : UTF-8 Plain Text
Продолжительность : 1 ч. 34 м.
Битрейт : 53 бит/сек
Count of elements : 1054
Размер потока : 36,7 Кбайт (0%)
Заголовок : SRT
Язык : English
Default : Да
Forced : Нет

Меню
00:00:00.000 : en:Chapter 01
00:06:04.330 : en:Chapter 02
00:15:53.930 : en:Chapter 03
00:23:58.759 : en:Chapter 04
00:30:15.935 : en:Chapter 05
00:38:38.948 : en:Chapter 06
00:47:16.309 : en:Chapter 07
00:54:20.075 : en:Chapter 08
01:04:16.308 : en:Chapter 09
01:12:49.248 : en:Chapter 10
01:21:05.045 : en:Chapter 11
01:30:30.705 : en:Chapter 12


_________________
Проголосуй за трекер Открытый торрент трекер - RUS-MEDIA.ORG

Проголосуй Открытый торрент трекер - RUS-MEDIA.ORG



реклама партнёра


Вернуться к началу
 Профиль Отправить личное сообщение  
 
   Похожие торренты   Автор   Торрент   Размер 
В этой теме нет новых непрочитанных сообщений. Призраки / Wind Chill [ужасы, триллер, драма, 2007] BDRip 1080p, Mvo

salma3

96 | 31

6.8 ГБ

В этой теме нет новых непрочитанных сообщений. Ветреная река / Wind River [триллер, драма, криминал, 2017] BDRip 1080p, Dub [iTunes]

salma3

75 | 10

7.55 ГБ

В этой теме нет новых непрочитанных сообщений. Шагающий по ветру / Windwalker [вестерн, драма, приключения, 1980] BDRip 720p, Avo+Sub

salma3

107 | 34

4.35 ГБ

В этой теме нет новых непрочитанных сообщений. Не говори ни слова / Don't Say a Word [Триллер, драма, криминал, 2001] Blu-ray Remux 1080p, Dub+Mvo+Sub

salma3

33 | 9

37.54 ГБ

В этой теме нет новых непрочитанных сообщений. Посеяли девушки лён [драма, мелодрама, 1956] DVDRip

salma3

24 | 8

1.46 ГБ

В этой теме нет новых непрочитанных сообщений. Гора / The Mountain [драма, приключения, 1956] BDRip 720p, Mvo

salma3

32 | 9

6.42 ГБ

В этой теме нет новых непрочитанных сообщений. От первого до последнего слова [01-04 из 04] [Мелодрама, детектив, экранизация, 2016] WEB-DL 720p

marya111

103 | 16

1.98 ГБ


Начать новую тему Ответить на тему  [ 1 сообщение ] 




Для Мосгорсуда, Роскомнадзора и рекламодателей:: mosgorsud-torrent[собачка]yandex.ru