Торрент файл
скачать торрент магнет ссылка Добавлен: 17 фев 2017, 21:47
Размер: 7.95 ГБ
Сидеров: 149
Личеров: 75
Статус: (salma3)
Автор

СообщениеДобавлено: 17 фев 2017, 21:47 

В сети
Супермодератор
Аватара пользователя
Дата регистрации:
15 фев 2012, 16:44
Возраст: 29
Спасибо: 7379 / 2147
Сообщения: 76000
Год выпуска: 2015
Жанр: драма, военный, история
Режиссер: Мартин Зандвлиет / Martin Zandvliet

В ролях: Роланд Мюллер, Миккель Боэ Фёльсгор, Луис Хофманн, Йоэль Басман, Оскар Бёкельманн, Эмиль Бушов, Оскар Бушов, Леон Зайдель, Лаура Бро...

Описание: Май 1945 года. Дания постепенно приходит в себя после оккупации и освобождается от господства Германии. Однако все западное побережье все еще заминировано - сюрприз союзным войскам. По решению военного командования, разминирование будет проводиться с помощью военнопленных. Сержанту Расмуссену категорически не везет: в его распоряжение поступают совсем молоденькие немецкие солдаты, мальчишки, еще вчера списывавшие друг у друга на контрольной...



Страна: Дания, Германия
Продолжительность: 01:40:52
Перевод: Любительский (одноголосый)
Субтитры: русские (adelstein_s), английские, немецкие (Forced), датские (Forced).

Качество: BDRip
Контейнер: MKV
Видео: AVC, 1920x800 (2.40:1), 9964 kbps, 23,976 fps, 0,271 bpp
Аудио №1: русский / AC3 / 5.1 / 48 kHz / 448 kbps / VO ( zamez )
Аудио №2: немецкий / AC3 / 5.1 / 48 kHz / 640 kbps
Навигация по главам: есть

Семпл

*********************************************************
x264 [info]: frame I:939 Avg QP:15.57 size:180911
x264 [info]: frame P:30473 Avg QP:17.22 size: 97189
x264 [info]: frame B:113687 Avg QP:19.46 size: 40237
*********************************************************
Формат : Matroska
Версия формата : Version 2
Размер файла : 7,95 Гбайт
Продолжительность : 1 ч. 40 м.
Общий поток : 11,3 Мбит/сек
Название фильма : = Моя земля / Under sandet (2015) BDRip 1080p =
Дата кодирования : UTC 2017-02-14 15:40:44
Программа кодирования : mkvmerge v5.8.0 ('No Sleep / Pillow') built on Sep 2 2012 15:37:04
Библиотека кодирования : libebml v1.2.3 + libmatroska v1.3.0
Attachment : Yes

Видео
Идентификатор : 1
Формат : AVC
Формат/Информация : Advanced Video Codec
Профиль формата : High@L4.1
Параметр CABAC формата : Да
Параметр ReFrames формата : 5 кадров
Идентификатор кодека : V_MPEG4/ISO/AVC
Продолжительность : 1 ч. 40 м.
Битрейт : 9964 Кбит/сек
Ширина : 1920 пикселей
Высота : 800 пикселей
Соотношение сторон : 2,40:1
Режим частоты кадров : Постоянный
Частота кадров : 23,976 кадра/сек
Цветовое пространство : YUV
Субдискретизация насыщенности : 4:2:0
Битовая глубина : 8 бит
Тип развёртки : Прогрессивная
Бит/(Пиксели*Кадры) : 0.271
Размер потока : 7,02 Гбайт (88%)
Заголовок : Моя земля / Under sandet (2015) BDRip 1080p
Библиотека кодирования : x264 core 146 r2538 121396c
Настройки программы : cabac=1 / ref=5 / deblock=1:-3:-3 / analyse=0x3:0x113 / me=umh / subme=11 / psy=1 / psy_rd=1.00:0.05 / mixed_ref=1 / me_range=48 / chroma_me=1 / trellis=2 / 8x8dct=1 / cqm=0 / deadzone=21,11 / fast_pskip=0 / chroma_qp_offset=-3 / threads=12 / lookahead_threads=3 / sliced_threads=0 / nr=0 / decimate=1 / interlaced=0 / bluray_compat=0 / constrained_intra=0 / bframes=10 / b_pyramid=2 / b_adapt=2 / b_bias=0 / direct=3 / weightb=1 / open_gop=0 / weightp=2 / keyint=240 / keyint_min=23 / scenecut=40 / intra_refresh=0 / rc=crf / mbtree=0 / crf=18.0 / qcomp=0.60 / qpmin=0 / qpmax=69 / qpstep=4 / ip_ratio=1.40 / pb_ratio=1.30 / aq=3:0.70
Язык : German
Default : Да
Forced : Нет
Основные цвета : BT.709
Характеристики трансфера : BT.709
Коэффициенты матрицы : BT.709

Аудио #1
Идентификатор : 2
Формат : AC-3
Формат/Информация : Audio Coding 3
Расширение режима : CM (complete main)
Параметр Endianness формата : Big
Идентификатор кодека : A_AC3
Продолжительность : 1 ч. 40 м.
Вид битрейта : Постоянный
Битрейт : 448 Кбит/сек
Каналы : 6 каналов
Расположение каналов : Front: L C R, Side: L R, LFE
Частота : 48,0 КГц
Битовая глубина : 16 бит
Метод сжатия : С потерями
Размер потока : 323 Мбайт (4%)
Заголовок : VO ( zamez )
Язык : Russian
Default : Да
Forced : Нет

Аудио #2
Идентификатор : 3
Формат : AC-3
Формат/Информация : Audio Coding 3
Расширение режима : CM (complete main)
Параметр Endianness формата : Big
Идентификатор кодека : A_AC3
Продолжительность : 1 ч. 40 м.
Вид битрейта : Постоянный
Битрейт : 640 Кбит/сек
Каналы : 6 каналов
Расположение каналов : Front: L C R, Side: L R, LFE
Частота : 48,0 КГц
Битовая глубина : 16 бит
Метод сжатия : С потерями
Размер потока : 462 Мбайт (6%)
Заголовок : MULTI
Язык : German
Default : Нет
Forced : Нет

Текст #1
Идентификатор : 4
Формат : UTF-8
Идентификатор кодека : S_TEXT/UTF8
Идентификатор кодека/Информация : UTF-8 Plain Text
Заголовок : adelstein_s
Язык : Russian
Default : Нет
Forced : Нет

Текст #2
Идентификатор : 5
Формат : UTF-8
Идентификатор кодека : S_TEXT/UTF8
Идентификатор кодека/Информация : UTF-8 Plain Text
Язык : English
Default : Нет
Forced : Нет

Текст #3
Идентификатор : 6
Формат : UTF-8
Идентификатор кодека : S_TEXT/UTF8
Идентификатор кодека/Информация : UTF-8 Plain Text
Заголовок : Forced
Язык : German
Default : Нет
Forced : Нет

Текст #4
Идентификатор : 7
Формат : UTF-8
Идентификатор кодека : S_TEXT/UTF8
Идентификатор кодека/Информация : UTF-8 Plain Text
Заголовок : Forced
Язык : Danish
Default : Нет
Forced : Нет

Меню
00:00:00.000 : en:00:00:00.000
00:08:35.390 : en:00:08:35.390
00:15:05.363 : en:00:15:05.363
00:22:43.237 : en:00:22:43.237
00:30:14.855 : en:00:30:14.855
00:37:46.556 : en:00:37:46.556
00:45:28.935 : en:00:45:28.935
00:54:44.990 : en:00:54:44.990
01:03:20.463 : en:01:03:20.463
01:10:37.275 : en:01:10:37.275
01:20:00.963 : en:01:20:00.963
01:27:53.894 : en:01:27:53.894



Релиз от:


_________________
Проголосуй за трекер Открытый торрент трекер - RUS-MEDIA.ORG

Проголосуй Открытый торрент трекер - RUS-MEDIA.ORG


Вернуться к началу
 Профиль Отправить личное сообщение  
 
   Похожие торренты   Автор   Торрент   Размер 
В этой теме нет новых непрочитанных сообщений. Моя земля / Under sandet [драма, военный, история, 2015] BDRip 720p, Avo+Sub

salma3

211 | 48

3.34 ГБ

В этой теме нет новых непрочитанных сообщений. Моя земля / Under sandet [драма, военный, история, 2015] BDRip 720p, Mvo

salma3

53 | 23

3.29 ГБ

В этой теме нет новых непрочитанных сообщений. Небо и земля / Heaven & Earth [Боевик, драма, военный, биография, история, 1993] BDRip 1080p, Dvo

salma3

33 | 19

15.1 ГБ

В этой теме нет новых непрочитанных сообщений. Под песком / Under sandet (Мартин Зандвлиет / Martin Zandvliet) [2015г., Дания, драма, военный, история, DVDRip] sub

Alfredovich

23 | 7

1.46 ГБ

В этой теме нет новых непрочитанных сообщений. Они сражались за Родину [драма, военный, история, 1975] BDRip 1080p

salma3

46 | 15

13.61 ГБ

В этой теме нет новых непрочитанных сообщений. 12-й человек / Den 12. mann [триллер, драма, военный, история, 2017] BDRip 1080p, Sub

salma3

133 | 95

9.83 ГБ

В этой теме нет новых непрочитанных сообщений. Кромвель / Cromwell [драма, военный, биография, история, 1970] BDRip 1080p, Dvo

salma3

38 | 12

8.61 ГБ


Начать новую тему Ответить на тему  [ 1 сообщение ] 




Для Мосгорсуда, Роскомнадзора и рекламодателей:: mosgorsud-torrent[собачка]yandex.ru
cron