Торрент файл
скачать торрент магнет ссылка Добавлен: 17 фев 2017, 17:24
Размер: 7.3 ГБ
Сидеров: 60
Личеров: 41
Статус: (salma3)
Автор

СообщениеДобавлено: 17 фев 2017, 17:24 

Не в сети
Супермодератор
Аватара пользователя
Дата регистрации:
15 фев 2012, 16:44
Возраст: 28
Спасибо: 6644 / 2146
Сообщения: 45843
Год выхода: 1986
Жанр: боевик, драма, военный
Режиссер: Клинт Иствуд

В ролях: Клинт Иствуд, Марша Мейсон, Эверет МакГилл, Моузес Ганн, Айлин Хекарт, Бо Свенсон, Бойд Гейнс, Марио Ван Пиблз, Арлен Дин Снайдер, Винсент Ирисарри

О фильме:
Клинт Иствуд в роли Тома Хайвея, ветерана корейской и вьетнамской кампаний. Это много выстрадавший и искалеченный войной человек… В новой жизни ему нет места, его не понимают, и все, что ему остается, — это вино и воспоминания о прошлом. А также женщина, которая много для него значит… Однако, если потребуется, Том Хайвей сможет взяться за старое ремесло и завершить свой путь подобно воину, на поле боя…



Страна: США
Продолжительность: 02:09:57
Перевод: Профессиональный (многоголосый, закадровый) + Авторский (одноголосый, закадровый) В.Горчаков + Авторский (одноголосый, закадровый) Г.Либергал

Файл
Формат: Matroska
Качество: BDRip 720p
Видео: 1280x720 at 23.976 fps, x264@L4.1, ~6667 kbps avg
Аудио#1: Russian: 48 kHz, AC3 Dolby Digital, 3/2 (L,C,R,l,r) + LFE ch, ~384 kbps avg |Многоголосый закадровый|
Аудио#2: Russian: 48 kHz, AC3 Dolby Digital, 2/0 (L,R) ch, ~192 kbps avg |Авторский, В.Горчаков|
Аудио#3: Russian: 48 kHz, AC3 Dolby Digital, 2/0 (L,R) ch, ~192 kbps avg |Авторский, Г.Либергал|
Аудио#4: English: 48 kHz, AC3 Dolby Digital, 3/2 (L,C,R,l,r) + LFE ch, ~448 kbps avg
Субтитры: English

***Сохранены оригинальные главы как на Blu-ray.
***Релиз - msltel.

Общее
Уникальный идентификатор : 184312995887065439548002262063250758555 (0x8AA9644C78B275F29F5078BD33F55B9B)
Полное имя : Перевал разбитых сердец.1986.BDRip.720p by msltel.mkv
Формат : Matroska
Версия формата : Version 4 / Version 2
Размер файла : 7,30 Гбайт
Продолжительность : 2 ч. 9 м.
Общий поток : 8043 Кбит/сек
Название фильма : Rip by msltel
Дата кодирования : UTC 2017-02-17 03:07:53
Программа кодирования : mkvmerge v8.2.0 ('World of Adventure') 64bit
Библиотека кодирования : libebml v1.3.1 + libmatroska v1.4.2

Видео
Идентификатор : 1
Формат : AVC
Формат/Информация : Advanced Video Codec
Профиль формата : High@L4.1
Параметр CABAC формата : Да
Параметр ReFrames формата : 9 кадров
Идентификатор кодека : V_MPEG4/ISO/AVC
Продолжительность : 2 ч. 9 м.
Битрейт : 6667 Кбит/сек
Ширина : 1280 пикселей
Высота : 720 пикселей
Соотношение сторон : 16:9
Режим частоты кадров : Постоянный
Частота кадров : 23,976 кадра/сек
Цветовое пространство : YUV
Субдискретизация насыщенности : 4:2:0
Битовая глубина : 8 бит
Тип развёртки : Прогрессивная
Бит/(Пиксели*Кадры) : 0.302
Размер потока : 6,05 Гбайт (83%)
Библиотека кодирования : x264 core 146 r2538 121396c
Настройки программы : cabac=1 / ref=9 / deblock=1:-3:-3 / analyse=0x3:0x113 / me=umh / subme=11 / psy=1 / psy_rd=1.00:0.15 / mixed_ref=1 / me_range=32 / chroma_me=1 / trellis=2 / 8x8dct=1 / cqm=0 / deadzone=21,11 / fast_pskip=0 / chroma_qp_offset=-3 / threads=6 / lookahead_threads=1 / sliced_threads=0 / nr=0 / decimate=1 / interlaced=0 / bluray_compat=0 / constrained_intra=0 / bframes=10 / b_pyramid=2 / b_adapt=2 / b_bias=0 / direct=1 / weightb=1 / open_gop=0 / weightp=2 / keyint=230 / keyint_min=23 / scenecut=40 / intra_refresh=0 / rc_lookahead=40 / rc=crf / mbtree=0 / crf=19.8 / qcomp=0.60 / qpmin=0 / qpmax=69 / qpstep=4 / vbv_maxrate=62500 / vbv_bufsize=78125 / crf_max=0.0 / nal_hrd=none / filler=0 / ip_ratio=1.40 / pb_ratio=1.30 / aq=1:1.00
Язык : English
Default : Да
Forced : Нет

Аудио #1
Идентификатор : 2
Формат : AC-3
Формат/Информация : Audio Coding 3
Расширение режима : CM (complete main)
Параметр Endianness формата : Big
Идентификатор кодека : A_AC3
Продолжительность : 2 ч. 9 м.
Вид битрейта : Постоянный
Битрейт : 384 Кбит/сек
Каналы : 6 каналов
Расположение каналов : Front: L C R, Side: L R, LFE
Частота : 48,0 КГц
Битовая глубина : 16 бит
Метод сжатия : С потерями
Размер потока : 357 Мбайт (5%)
Заголовок : MVO
Язык : Russian
Default : Да
Forced : Нет

Аудио #2
Идентификатор : 3
Формат : AC-3
Формат/Информация : Audio Coding 3
Расширение режима : CM (complete main)
Параметр Endianness формата : Big
Идентификатор кодека : A_AC3
Продолжительность : 2 ч. 9 м.
Вид битрейта : Постоянный
Битрейт : 192 Кбит/сек
Каналы : 2 канала
Расположение каналов : Front: L R
Частота : 48,0 КГц
Битовая глубина : 16 бит
Метод сжатия : С потерями
Размер потока : 178 Мбайт (2%)
Заголовок : AVO (Василий Горчаков)
Язык : Russian
Default : Нет
Forced : Нет

Аудио #3
Идентификатор : 4
Формат : AC-3
Формат/Информация : Audio Coding 3
Расширение режима : CM (complete main)
Параметр Endianness формата : Big
Идентификатор кодека : A_AC3
Продолжительность : 2 ч. 9 м.
Вид битрейта : Постоянный
Битрейт : 192 Кбит/сек
Каналы : 2 канала
Расположение каналов : Front: L R
Частота : 48,0 КГц
Битовая глубина : 16 бит
Метод сжатия : С потерями
Размер потока : 178 Мбайт (2%)
Заголовок : AVO (Григорий Либергал)
Язык : Russian
Default : Нет
Forced : Нет

Аудио #4
Идентификатор : 5
Формат : AC-3
Формат/Информация : Audio Coding 3
Расширение режима : CM (complete main)
Параметр Endianness формата : Big
Идентификатор кодека : A_AC3
Продолжительность : 2 ч. 9 м.
Вид битрейта : Постоянный
Битрейт : 448 Кбит/сек
Каналы : 6 каналов
Расположение каналов : Front: L C R, Side: L R, LFE
Частота : 48,0 КГц
Битовая глубина : 16 бит
Метод сжатия : С потерями
Размер потока : 416 Мбайт (6%)
Заголовок : original
Язык : English
Default : Нет
Forced : Нет

Текст
Идентификатор : 6
Формат : UTF-8
Идентификатор кодека : S_TEXT/UTF8
Идентификатор кодека/Информация : UTF-8 Plain Text
Заголовок : английские (для слабослышащих)
Язык : English
Default : Нет
Forced : Нет

Меню
00:00:00.000 : :Chapter 01
00:05:00.000 : :Chapter 02
00:10:00.000 : :Chapter 03
00:15:00.000 : :Chapter 04
00:20:00.000 : :Chapter 05
00:25:00.000 : :Chapter 06
00:30:00.000 : :Chapter 07
00:35:00.000 : :Chapter 08
00:40:00.000 : :Chapter 09
00:45:00.000 : :Chapter 10
00:50:00.000 : :Chapter 11
00:55:00.000 : :Chapter 12
01:00:00.000 : :Chapter 13
01:05:00.000 : :Chapter 14
01:10:00.000 : :Chapter 15
01:15:00.000 : :Chapter 16
01:20:00.000 : :Chapter 17
01:25:00.000 : :Chapter 18
01:30:00.000 : :Chapter 19
01:35:00.000 : :Chapter 20
01:40:00.000 : :Chapter 21
01:45:00.000 : :Chapter 22
01:50:00.000 : :Chapter 23
01:55:00.000 : :Chapter 24
02:00:00.000 : :Chapter 25
02:05:00.000 : :Chapter 26


_________________
Проголосуй за трекер Открытый торрент трекер - RUS-MEDIA.ORG

Проголосуй Открытый торрент трекер - RUS-MEDIA.ORG



реклама партнёра


Вернуться к началу
 Профиль Отправить личное сообщение  
 
   Похожие торренты   Автор   Торрент   Размер 
В этой теме нет новых непрочитанных сообщений. Перевал разбитых сердец / Heartbreak Ridge [боевик, драма, военный, 1986] BDRip 1080p, Mvo+Avo+Sub

salma3

3 | 7

19.23 ГБ

В этой теме нет новых непрочитанных сообщений. По соображениям совести / Hacksaw Ridge (драма, военный, история, 2016) BDRip 720p от Scarabey | A

marya111

676 | 124

3.87 ГБ

В этой теме нет новых непрочитанных сообщений. По соображениям совести / Hacksaw Ridge ( драма, военный, история, 2016) BDRip 720p от New-Team | L

marya111

1365 | 538

7.12 ГБ

В этой теме нет новых непрочитанных сообщений. По соображениям совести / Hacksaw Ridge [драма, военный, история, 2016] BDRip, Mvo

salma3

840 | 287

2.18 ГБ

В этой теме нет новых непрочитанных сообщений. По соображениям совести / Hacksaw Ridge [драма, военный, история, 2016] BDRip-AVC, Dub+Sub [iTunes]

salma3

292 | 96

1.51 ГБ

В этой теме нет новых непрочитанных сообщений. По соображениям совести / Hacksaw Ridge (драма, военный, история, 2016) BDRip 1080p | L, A

marya111

827 | 385

9 ГБ

В этой теме нет новых непрочитанных сообщений. По соображениям совести / Hacksaw Ridge [драма, военный, история, 2016] BDRip-AVC, Dub+Sub [iTunes]

salma3

98 | 51

2.23 ГБ


Начать новую тему Ответить на тему  [ 1 сообщение ] 




Для Мосгорсуда, Роскомнадзора и рекламодателей:: mosgorsud-torrent[собачка]yandex.ru