Торрент файл
скачать торрент магнет ссылка Добавлен: 16 фев 2017, 12:56
Размер: 9.37 ГБ
Сидеров: 12
Личеров: 18
Статус: (salma3)
Автор

СообщениеДобавлено: 16 фев 2017, 12:56 

Не в сети
Супермодератор
Аватара пользователя
Дата регистрации:
15 фев 2012, 16:44
Возраст: 28
Спасибо: 6642 / 2146
Сообщения: 45738
Год выпуска: 1993
Жанр: комедия, семейный, спорт
Режиссер: Джон Тёртелтауб

В ролях: Леон (Derice Bannock), Даг Э. Даг (Sanka Coffie), Роул Д. Льюис (Junior Bevil), Мэлик Йоба (Yul Brenner), Джон Кэнди (Irv), Рэймонд Дж. Бэрри (Kurt Hemphill), Питер Аутербридж (Josef Grool), Пол Койер (Roger), Лэрри Гилмен (Larry), Чарльз Хайатт (Whitby Bevil - Sr.), Уинстон Стона (Coolidge), Бертина Маколи (Joy Bannock)

Описание:
Четверо спортсменов из Ямайки мечтают ни много, ни мало - об участии в Олимпиаде. Причем им не важно в каком виде спорта выступать. А почему бы не бобслей!?
Чего только не сделаешь на пути к заветной мечте. Пусть даже этот путь ледяной, а мчаться приходится в непонятном снаряде.



Страна: США
Перевод: Профессиональный (двухголосый); Авторский (одноголосый)
Продолжительность: 01:38:10

Качество: WEBRip 1080p
Формат: MKV
Источник: Cool.Runnings.1993.1080p.AMZN.WEBRip.DD2.0.x264-NTb
Видео: 1920x1040 at 23.976 fps, x264@L4.0, crf, ~11708 kbps avg
Аудио#1: Russian: 48 kHz/16-bit, AC3, 2/0 (L,R), ~192.00 kbps avg |Двухголосый закадровый, Видеосервис|
Аудио#2: Russian: 48 kHz/16-bit, AC3, 3/2 (L,C,R,l,r) + LFE ch, ~448.00 kbps avg |Одноголосый закадровый, В.Горчаков|
Аудио#3: Russian: 48 kHz/16-bit, AC3, 2/0 (L,R), ~224.00 kbps avg |Одноголосый закадровый, В.Дохалов|
Аудио#4: Russian: 48 kHz/16-bit, AC3, 2/0 (L,R), ~224.00 kbps avg |Одноголосый закадровый, А.Пронин|
Аудио#5: Russian: 48 kHz/16-bit, AC3, 3/2 (L,C,R,l,r) + LFE ch, ~448.00 kbps avg |Одноголосый закадровый, А.Толстобров|
Аудио#6: Ukrainian: 48 kHz/16-bit, AC3, 2/0 (L,R), ~192.00 kbps avg |Многоголосый закадровый, 1+1|
Аудио#7: English: 48 kHz/16-bit, E-AC3, 2/0 (L,R), ~224.00 kbps avg
Субтитры: Russian, English, English (SDH)

РАЗДАЧА ОТ:

General
Unique ID : 250982860879631411525166215074760514248 (0xBCD18A6D4164D65998EE6A98F95E5AC8)
Complete name : D:КИНОКрутые виражи.1993.1080p.WEBRip.5xRus.Ukr.Eng.HDCLUB.mkv
Format : Matroska
Format version : Version 2
File size : 9.37 GiB
Duration : 1 h 38 min
Overall bit rate mode : Variable
Overall bit rate : 13.7 Mb/s
Movie name : Cool Runnings (1993) - Release for HDCLUB
Encoded date : UTC 2017-02-15 18:58:34
Writing application : mkvmerge v5.8.0 ('No Sleep / Pillow') built on Sep 2 2012 15:37:04
Writing library : libebml v1.2.3 + libmatroska v1.3.0
Cover : Yes
Attachments : cover.jpg

Video
ID : 1
Format : AVC
Format/Info : Advanced Video Codec
Format profile : High@L4
Format settings, CABAC : Yes
Format settings, ReFrames : 4 frames
Codec ID : V_MPEG4/ISO/AVC
Duration : 1 h 38 min
Bit rate mode : Variable
Bit rate : 11.4 Mb/s
Maximum bit rate : 15.0 Mb/s
Width : 1 920 pixels
Height : 1 040 pixels
Display aspect ratio : 1.85:1
Original display aspect rat : 1.85:1
Frame rate mode : Constant
Frame rate : 23.976 (24000/1001) FPS
Color space : YUV
Chroma subsampling : 4:2:0
Bit depth : 8 bits
Scan type : Progressive
Bits/(Pixel*Frame) : 0.239
Stream size : 7.84 GiB (84%)
Title : Cool Runnings (1993) - Release for HDCLUB
Writing library : x264 core 148 r2623 d5b2374
Encoding settings : cabac=1 / ref=4 / deblock=1:-1:-1 / analyse=0x3:0x133 / me=umh / subme=9 / psy=1 / psy_rd=1.00:0.15 / mixed_ref=1 / me_range=24 / chroma_me=1 / trellis=2 / 8x8dct=1 / cqm=0 / deadzone=21,11 / fast_pskip=1 / chroma_qp_offset=-3 / threads=32 / lookahead_threads=5 / sliced_threads=0 / nr=150 / decimate=1 / interlaced=0 / bluray_compat=0 / constrained_intra=0 / bframes=8 / b_pyramid=2 / b_adapt=2 / b_bias=0 / direct=3 / weightb=1 / open_gop=0 / weightp=2 / keyint=120 / keyint_min=61 / scenecut=0 / intra_refresh=0 / rc_lookahead=120 / rc=crf / mbtree=1 / crf=18.0 / qcomp=0.60 / qpmin=0 / qpmax=69 / qpstep=4 / vbv_maxrate=15000 / vbv_bufsize=31250 / crf_max=0.0 / nal_hrd=vbr / filler=0 / ip_ratio=1.40 / aq=3:1.00
Language : English
Default : Yes
Forced : No
Color range : Limited
Color primaries : BT.709
Transfer characteristics : BT.709
Matrix coefficients : BT.709

Audio #1
ID : 2
Format : AC-3
Format/Info : Audio Coding 3
Mode extension : CM (complete main)
Format settings, Endianness : Big
Codec ID : A_AC3
Duration : 1 h 38 min
Bit rate mode : Constant
Bit rate : 192 kb/s
Channel(s) : 2 channels
Channel positions : Front: L R
Sampling rate : 48.0 kHz
Frame rate : 31.250 FPS (1536 spf)
Bit depth : 16 bits
Compression mode : Lossy
Stream size : 135 MiB (1%)
Title : Двухголосый закадровый, Видеосервис
Language : Russian
Default : Yes
Forced : No

Audio #2
ID : 3
Format : AC-3
Format/Info : Audio Coding 3
Mode extension : CM (complete main)
Format settings, Endianness : Big
Codec ID : A_AC3
Duration : 1 h 38 min
Bit rate mode : Constant
Bit rate : 448 kb/s
Channel(s) : 6 channels
Channel positions : Front: L C R, Side: L R, LFE
Sampling rate : 48.0 kHz
Frame rate : 31.250 FPS (1536 spf)
Bit depth : 16 bits
Compression mode : Lossy
Stream size : 315 MiB (3%)
Title : Одноголосый закадровый, В.Горчаков
Language : Russian
Default : No
Forced : No

Audio #3
ID : 4
Format : AC-3
Format/Info : Audio Coding 3
Mode extension : CM (complete main)
Format settings, Endianness : Big
Codec ID : A_AC3
Duration : 1 h 38 min
Bit rate mode : Constant
Bit rate : 224 kb/s
Channel(s) : 2 channels
Channel positions : Front: L R
Sampling rate : 48.0 kHz
Frame rate : 31.250 FPS (1536 spf)
Bit depth : 16 bits
Compression mode : Lossy
Stream size : 157 MiB (2%)
Title : Одноголосый закадровый, В.Дохалов
Language : Russian
Default : No
Forced : No

Audio #4
ID : 5
Format : AC-3
Format/Info : Audio Coding 3
Mode extension : CM (complete main)
Format settings, Endianness : Big
Codec ID : A_AC3
Duration : 1 h 38 min
Bit rate mode : Constant
Bit rate : 224 kb/s
Channel(s) : 2 channels
Channel positions : Front: L R
Sampling rate : 48.0 kHz
Frame rate : 31.250 FPS (1536 spf)
Bit depth : 16 bits
Compression mode : Lossy
Stream size : 157 MiB (2%)
Title : Одноголосый закадровый, А.Пронин
Language : Russian
Default : No
Forced : No

Audio #5
ID : 6
Format : AC-3
Format/Info : Audio Coding 3
Mode extension : CM (complete main)
Format settings, Endianness : Big
Codec ID : A_AC3
Duration : 1 h 38 min
Bit rate mode : Constant
Bit rate : 448 kb/s
Channel(s) : 6 channels
Channel positions : Front: L C R, Side: L R, LFE
Sampling rate : 48.0 kHz
Frame rate : 31.250 FPS (1536 spf)
Bit depth : 16 bits
Compression mode : Lossy
Stream size : 315 MiB (3%)
Title : Одноголосый закадровый, А.Толстобров
Language : Russian
Default : No
Forced : No

Audio #6
ID : 7
Format : AC-3
Format/Info : Audio Coding 3
Mode extension : CM (complete main)
Format settings, Endianness : Big
Codec ID : A_AC3
Duration : 1 h 38 min
Bit rate mode : Constant
Bit rate : 192 kb/s
Channel(s) : 2 channels
Channel positions : Front: L R
Sampling rate : 48.0 kHz
Frame rate : 31.250 FPS (1536 spf)
Bit depth : 16 bits
Compression mode : Lossy
Stream size : 135 MiB (1%)
Title : Многоголосый закадровый, 1+1
Language : Ukrainian
Default : No
Forced : No

Audio #7
ID : 8
Format : E-AC-3
Format/Info : Enhanced Audio Coding 3
Format settings, Endianness : Big
Codec ID : A_EAC3
Duration : 1 h 38 min
Bit rate mode : Constant
Bit rate : 224 kb/s
Channel(s) : 2 channels
Channel positions : Front: L R
Sampling rate : 48.0 kHz
Frame rate : 187.500 FPS (256 spf)
Compression mode : Lossy
Stream size : 157 MiB (2%)
Title : English
Language : English
Default : No
Forced : No

Text #1
ID : 9
Format : UTF-8
Codec ID : S_TEXT/UTF8
Codec ID/Info : UTF-8 Plain Text
Title : Russian
Language : Russian
Default : No
Forced : No

Text #2
ID : 10
Format : UTF-8
Codec ID : S_TEXT/UTF8
Codec ID/Info : UTF-8 Plain Text
Title : English
Language : English
Default : No
Forced : No

Text #3
ID : 11
Format : UTF-8
Codec ID : S_TEXT/UTF8
Codec ID/Info : UTF-8 Plain Text
Title : English (SDH)
Language : English
Default : No
Forced : No

Menu
00:00:00.000 : :Program Start
00:00:15.349 : :Opening Credits
00:04:56.097 : :Sanka's Pushcart Derby
00:07:44.933 : :100 Meter Finals
00:14:40.883 : :Convincing Irving Blitzer
00:18:29.111 : :First Jamaican Bobsled Team
00:26:23.885 : :Training Begins
00:30:27.161 : :Send Us to the Olympics!
00:40:30.565 : :Running on Ice
00:45:06.841 : :First Run
00:53:41.055 : :Irv's Past Revealed
00:56:56.218 : :Pride and Power.
01:06:28.224 : :Qualifying Run
01:09:58.567 : :Irv Faces the Alliance
01:14:57.365 : :Junior Takes a Stand
01:19:31.974 : :A Dismal Start
01:23:07.689 : :Bobsled Jamaican Style
01:25:23.825 : :Irv Explains Himself
01:28:07.323 : :Jamaican Heroes
01:34:55.899 : :End Credits


_________________
Проголосуй за трекер Открытый торрент трекер - RUS-MEDIA.ORG

Проголосуй Открытый торрент трекер - RUS-MEDIA.ORG



реклама партнёра


Вернуться к началу
 Профиль Отправить личное сообщение  
 
   Похожие торренты   Автор   Торрент   Размер 
В этой теме нет новых непрочитанных сообщений. Крутые виражи / Cool Runnings [комедия, семейный, спорт, 1993] WEBRip-AVC, Dvo+Avo+Sub

salma3

16 | 6

1.46 ГБ

В этой теме нет новых непрочитанных сообщений. Крутые виражи / Cool Runnings [комедия, семейный, спорт, 1993] WEB-DLRip 720p, Dvo

salma3

0 | 0

3.27 ГБ

В этой теме нет новых непрочитанных сообщений. Крутые парни / Крутые ребята / Крутые мужики / Tough Guys [криминал, комедия, 1986] WEB-DL 720p, Dub+Mvo+Sub

salma3

4 | 1

3.36 ГБ

В этой теме нет новых непрочитанных сообщений. Лёд в сердце / Go Figure [Драма, комедия, семейный, спорт, 2005] WEBRip 720p, Dub

salma3

3 | 0

3.35 ГБ

В этой теме нет новых непрочитанных сообщений. Уик-энд у Берни 2 / Weekend at Bernie's II [фэнтези, комедия, 1993] WEBRip 1080p, Avo

salma3

102 | 36

9.12 ГБ

В этой теме нет новых непрочитанных сообщений. Крутые ребята / De tøffeste gutta [семейный, 2013] BDRip 1080p. Avo

salma3

10 | 7

5.56 ГБ

В этой теме нет новых непрочитанных сообщений. Жестяной кубок / Tin cup [драма, мелодрама, комедия, спорт, 1996] WEBRip 1080p, Mvo+Dvo+Avo+Sub

salma3

39 | 117

11.21 ГБ


Начать новую тему Ответить на тему  [ 1 сообщение ] 




Для Мосгорсуда, Роскомнадзора и рекламодателей:: mosgorsud-torrent[собачка]yandex.ru