Торрент файл
скачать торрент магнет ссылка Добавлен: 16 фев 2017, 02:08
Размер: 7.4 ГБ
Сидеров: 46
Личеров: 19
Статус: (salma3)
Автор

СообщениеДобавлено: 16 фев 2017, 02:08 

Не в сети
Супермодератор
Аватара пользователя
Дата регистрации:
15 фев 2012, 16:44
Возраст: 28
Спасибо: 6667 / 2146
Сообщения: 46100
Год выхода: 1993
Жанр: фантастика, ужасы, комедия
Режиссер: Филип Брофи

В ролях: Герард Кеннеди, Эндрю Дейдду, Эндрю Дейдду, Regina Gaigalas, Винсент Джил, Нил Фоли, Антея Дэвис, Мэттью Ньютон, Лесли Бэйкер, Amy Grove-Rogers

О фильме:
Странная смерть мужчины, тело которого оказалось едва ли не расплавленным изнутри, заставляет полицию начать расследование, которое приводит её к местной фармацевтической фирме, устроившей на горожанах эксперимент. Их новый препарат преподносится как витамин и биодобавка к пище, но имеет побочные эффекты в виде плавления тела, мутации и образованию внутри организма самостоятельных живых существ. Мы проследим не только за жизнью создателей этой хрени (бабы-владелицы компании и мужика-фармацевта), но и за двумя парнями, отправившимися в австралийскую глубинку и попавшими в плен к безумной семейке каннибалов, за молодой женщиной, беременность которой протекает не так, как должна была быть, а также за мужчиной, который постепенно начинает испытывать страшные галлюцинации. Не только эти люди, но и почти весь город уже употребляет данные “витамины”…
Очень чёрный и странный австралийский ужастик, созданный в духе БУЙСТВА СМЕРТИ, ВКУСНОЙ ДРЯНИ, ОЗОНА, ОСОБИ, ТЕХАССКОЙ РЕЗНИ БЕНЗОПИЛОЙ и УЛИЧНОГО МУСОРА. (описание с demonoid.narod.ru)



Страна: Австралия
Продолжительность: 01:22:36
Перевод: Авторский (одноголосый закадровый) [Сергей Кузнецов]

Файл
Кодек: H.264
Качество: BDRip 1080p
Видео: High@L4.1; 1920x1080; 11,5 Мбит/сек; 23,976 кадра/сек; 0.231
Звук:
#1. AC3; 48,0 КГц; 192 Кбит/сек; 2 канала | AVO
#2. DTS; 48,0 КГц; 1509 Кбит/сек; 6 каналов; Front: L C R, Side: L R, LFE | English
Субтитры: English

Семпл

Общее
Уникальный идентификатор : 176180085454812531661845602554721784972 (0x848B0CDB19CC975FA2C128E46E6ED48C)
Полное имя : D:Фильмы____Расплавленное тело (1993) BDRip 1080p A.mkv
Формат : Matroska
Версия формата : Version 4 / Version 2
Размер файла : 7,40 Гбайт
Продолжительность : 1 ч. 22 м.
Общий поток : 12,8 Мбит/сек
Название фильма : Body.Melt.1993.1080p.BluRay.x264.DTS-FGT
Дата кодирования : UTC 2017-02-15 20:34:17
Программа кодирования : mkvmerge v9.8.0 ('Kuglblids') 64bit
Библиотека кодирования : libebml v1.3.4 + libmatroska v1.4.5
Обложка : Yes
Attachments : small_cover.jpg / small_cover_land.jpg / cover.jpg / cover_land.jpg

Видео
Идентификатор : 1
Формат : AVC
Формат/Информация : Advanced Video Codec
Профиль формата : High@L4.1
Параметр CABAC формата : Да
Параметр ReFrames формата : 4 кадра
Идентификатор кодека : V_MPEG4/ISO/AVC
Продолжительность : 1 ч. 22 м.
Битрейт : 11,5 Мбит/сек
Ширина : 1920 пикселей
Высота : 1080 пикселей
Соотношение сторон : 16:9
Режим частоты кадров : Постоянный
Частота кадров : 23,976 (24000/1001) кадра/сек
Цветовое пространство : YUV
Субдискретизация насыщенности : 4:2:0
Битовая глубина : 8 бит
Тип развёртки : Прогрессивная
Бит/(Пиксели*Кадры) : 0.231
Размер потока : 6,42 Гбайт (87%)
Заголовок : Body.Melt.1993.1080p.BluRay.x264.DTS-FGT
Библиотека кодирования : x264 core 148 r2694 3b70645
Настройки программы : cabac=1 / ref=4 / deblock=1:-2:-2 / analyse=0x3:0x113 / me=umh / subme=7 / psy=1 / psy_rd=1.00:0.15 / mixed_ref=1 / me_range=16 / chroma_me=1 / trellis=1 / 8x8dct=1 / cqm=0 / deadzone=21,11 / fast_pskip=1 / chroma_qp_offset=-3 / threads=40 / lookahead_threads=3 / sliced_threads=0 / nr=0 / decimate=1 / interlaced=0 / bluray_compat=0 / constrained_intra=0 / bframes=3 / b_pyramid=2 / b_adapt=2 / b_bias=0 / direct=3 / weightb=1 / open_gop=0 / weightp=2 / keyint=250 / keyint_min=25 / scenecut=40 / intra_refresh=0 / rc_lookahead=50 / rc=abr / mbtree=1 / bitrate=11500 / ratetol=1.0 / qcomp=0.60 / qpmin=0 / qpmax=69 / qpstep=4 / vbv_maxrate=31250 / vbv_bufsize=31250 / nal_hrd=none / filler=0 / ip_ratio=1.40 / aq=1:1.00
Язык : English
Default : Да
Forced : Нет

Аудио #1
Идентификатор : 2
Формат : AC-3
Формат/Информация : Audio Coding 3
Расширение режима : CM (complete main)
Параметр Endianness формата : Big
Идентификатор кодека : A_AC3
Продолжительность : 1 ч. 22 м.
Вид битрейта : Постоянный
Битрейт : 192 Кбит/сек
Каналы : 2 канала
Расположение каналов : Front: L R
Частота : 48,0 КГц
Частота кадров : 31,250 кадров/сек (1536 spf)
Битовая глубина : 16 бит
Метод сжатия : С потерями
Размер потока : 113 Мбайт (1%)
Заголовок : A (Кузнецов)
Язык : Russian
Default : Да
Forced : Нет

Аудио #2
Идентификатор : 3
Формат : DTS
Формат/Информация : Digital Theater Systems
Режим : 16
Параметр Endianness формата : Big
Идентификатор кодека : A_DTS
Продолжительность : 1 ч. 22 м.
Вид битрейта : Постоянный
Битрейт : 1509 Кбит/сек
Каналы : 6 каналов
Расположение каналов : Front: L C R, Side: L R, LFE
Частота : 48,0 КГц
Частота кадров : 93,750 кадра/сек (512 spf)
Битовая глубина : 24 бит
Метод сжатия : С потерями
Размер потока : 892 Мбайт (12%)
Язык : English
Default : Нет
Forced : Нет

Текст
Идентификатор : 4
Формат : UTF-8
Идентификатор кодека : S_TEXT/UTF8
Идентификатор кодека/Информация : UTF-8 Plain Text
Продолжительность : 1 ч. 17 м.
Битрейт : 31 бит/сек
Count of elements : 678
Размер потока : 18,1 Кбайт (0%)
Язык : English
Default : Да
Forced : Нет

Меню
00:00:00.000 : en:Chapter 01
00:03:06.227 : en:Chapter 02
00:13:50.454 : en:Chapter 03
00:18:40.786 : en:Chapter 04
00:23:30.242 : en:Chapter 05
00:29:06.327 : en:Chapter 06
00:33:56.117 : en:Chapter 07
00:41:19.143 : en:Chapter 08
00:45:51.915 : en:Chapter 09
00:51:09.107 : en:Chapter 10
00:56:12.077 : en:Chapter 11
00:59:56.134 : en:Chapter 12
01:06:01.832 : en:Chapter 13
01:18:14.648 : en:Chapter 14


_________________
Проголосуй за трекер Открытый торрент трекер - RUS-MEDIA.ORG

Проголосуй Открытый торрент трекер - RUS-MEDIA.ORG



реклама партнёра


Вернуться к началу
 Профиль Отправить личное сообщение  
 
   Похожие торренты   Автор   Торрент   Размер 
В этой теме нет новых непрочитанных сообщений. Расплавленное тело / Body Melt [фантастика, ужасы, комедия, 1993] HDRip-AVC, Avo

salma3

33 | 2

744.2 МБ

В этой теме нет новых непрочитанных сообщений. Мешки для трупов / Body Bags [Ужасы, фантастика, триллер, комедия, 1993] BDRip 1080p, Mvo

salma3

10 | 0

12.78 ГБ

В этой теме нет новых непрочитанных сообщений. Похитители тел / Body Snatchers [Фантастика, ужасы, триллер, 1993] BDRip-AVC, Dub

salma3

10 | 5

2.75 ГБ

В этой теме нет новых непрочитанных сообщений. Похитители тел / Body Snatchers [Фантастика, ужасы, триллер, 1993] BDRip-AVC, Dub

salma3

22 | 2

746.17 МБ

В этой теме нет новых непрочитанных сообщений. Мешки для трупов / Body Bags [ужасы, фантастика, комедия, 1993] BDRemux 1080р, Mvo

salma3

0 | 7

22.34 ГБ

В этой теме нет новых непрочитанных сообщений. Похитители тел / Body Snatchers [ужасы, фантастика, 1993] BDRemux 1080р, Dub

salma3

8 | 8

31.37 ГБ

В этой теме нет новых непрочитанных сообщений. Похитители тел / Body Snatchers [ужасы, фантастика, триллер, детектив, 1993] WEB-DL 720p, Mvo

salma3

6 | 1

3.18 ГБ


Начать новую тему Ответить на тему  [ 1 сообщение ] 




Для Мосгорсуда, Роскомнадзора и рекламодателей:: mosgorsud-torrent[собачка]yandex.ru