Торрент файл
скачать торрент магнет ссылка Добавлен: 14 фев 2017, 14:28
Размер: 7.19 ГБ
Сидеров: 13
Личеров: 11
Статус: (salma3)
Автор

СообщениеДобавлено: 14 фев 2017, 14:28 

Не в сети
Супермодератор
Аватара пользователя
Дата регистрации:
15 фев 2012, 16:44
Возраст: 28
Спасибо: 7290 / 2147
Сообщения: 70611
Год выпуска: 2012
Жанр: драма
Режиссер: Томас Винтерберг

В ролях: Мадс Миккельсен, Томас Бо Ларсен, Анника Веддеркопп, Лассе Фогельстрём, Суссе Вольд, Анне Луизе Хассинг, Ларс Ранте, Александра Рапапорт

Описание:
Учитель живет одинокой жизнью, все время борется за опеку над сыном. Его жизнь постепенно становится лучше, когда он находит любовь и получает хорошие новости от сына, но его новая жизнь вот-вот будет жестоко разрушена невинной ложью.



Страна: Дания, Швеция
Продолжительность: 01:55:28
Перевод: Профессиональный (многоголосый, закадровый)

Формат: BDRip 1080p
Видео: 1920x816p (2.35:1), 23.976 fps, AVC MPEG-4 (H.264), ~8402 kbps, 0.215 bit/pixel
Аудио1: Русский: 48 kHz, AC3 Dolby Digital, 6 ch, ~448 kbps
Аудио2: Датский: 48 kHz, AC3 Dolby Digital, 6 ch, ~448 kbps

Общее
Уникальный идентификатор : 219546072890619599564847723145218498381 (0xA52B091CC57A6236909B53B716501F4D)
Полное имя : The.Hunt.2012.х264.BDRip.1080p.mkv
Формат : Matroska
Версия формата : Version 2
Размер файла : 7,19 Гбайт
Продолжительность : 1 ч. 50 м.
Общий поток : 9291 Кбит/сек
Название фильма : ☭WIDDER☭
Дата кодирования : UTC 2013-03-31 13:27:16
Программа кодирования : mkvmerge v4.5.0 ('Speed of Light') сборка от Feb 1 2011 02:10:32
Библиотека кодирования : libebml v1.2.0 + libmatroska v1.1.0

Видео
Идентификатор : 1
Формат : AVC
Формат/Информация : Advanced Video Codec
Профиль формата :
Параметр CABAC формата : Да
Параметр ReFrames формата : 5 кадров
Идентификатор кодека : V_MPEG4/ISO/AVC
Продолжительность : 1 ч. 50 м.
Битрейт : 8402 Кбит/сек
Ширина : 1920 пикселей
Высота : 816 пикселей
Соотношение сторон : 2,35:1
Режим частоты кадров : Постоянный
Частота кадров : 25,000 кадров/сек
Цветовое пространство : YUV
Субдискретизация насыщенности : 4:2:0
Битовая глубина : 8 бит
Тип развёртки : Прогрессивная
Бит/(Пиксели*Кадры) : 0.215
Размер потока : 6,35 Гбайт (88%)
Заголовок : The Hunt / Jagten (2012)
Библиотека кодирования : x264 core 130 r2273 b3065e6
Настройки программы : cabac=1 / ref=5 / deblock=1:-3:-3 / analyse=0x3:0x133 / me=umh / subme=11 / psy=1 / psy_rd=1.00:0.00 / mixed_ref=1 / me_range=32 / chroma_me=1 / trellis=2 / 8x8dct=1 / cqm=0 / deadzone=21,11 / fast_pskip=0 / chroma_qp_offset=-2 / threads=12 / lookahead_threads=1 / sliced_threads=0 / nr=0 / decimate=1 / interlaced=0 / bluray_compat=0 / constrained_intra=0 / bframes=5 / b_pyramid=2 / b_adapt=2 / b_bias=0 / direct=3 / weightb=1 / open_gop=0 / weightp=2 / keyint=250 / keyint_min=25 / scenecut=40 / intra_refresh=0 / rc_lookahead=60 / rc=2pass / mbtree=0 / bitrate=8402 / ratetol=1.0 / qcomp=0.60 / qpmin=0 / qpmax=69 / qpstep=4 / cplxblur=20.0 / qblur=0.5 / vbv_maxrate=62500 / vbv_bufsize=78125 / nal_hrd=none / ip_ratio=1.40 / pb_ratio=1.30 / aq=2:0.80
Язык : Danish
Default : Да
Forced : Нет

Аудио #1
Идентификатор : 2
Формат : AC-3
Формат/Информация : Audio Coding 3
Расширение режима : CM (complete main)
Параметр Endianness формата : Big
Идентификатор кодека : A_AC3
Продолжительность : 1 ч. 50 м.
Вид битрейта : Постоянный
Битрейт : 448 Кбит/сек
Каналы : 6 каналов
Расположение каналов : Front: L C R, Side: L R, LFE
Частота : 48,0 КГц
Битовая глубина : 16 бит
Метод сжатия : С потерями
Размер потока : 355 Мбайт (5%)
Заголовок : AC3, 448 Kbps (6 ch) Профессиональный многоголосый (R5)
Язык : Russian
Default : Да
Forced : Нет

Аудио #2
Идентификатор : 3
Формат : AC-3
Формат/Информация : Audio Coding 3
Расширение режима : CM (complete main)
Параметр Endianness формата : Big
Идентификатор кодека : A_AC3
Продолжительность : 1 ч. 50 м.
Вид битрейта : Постоянный
Битрейт : 448 Кбит/сек
Каналы : 6 каналов
Расположение каналов : Front: L C R, Side: L R, LFE
Частота : 48,0 КГц
Битовая глубина : 16 бит
Метод сжатия : С потерями
Размер потока : 355 Мбайт (5%)
Заголовок : AC3, 448 Kbps (6 ch) Original
Язык : Danish
Default : Нет
Forced : Нет

Текст
Идентификатор : 4
Формат : UTF-8
Идентификатор кодека : S_TEXT/UTF8
Идентификатор кодека/Информация : UTF-8 Plain Text
Язык : English
Default : Нет
Forced : Нет

Меню
00:00:00.000 : :Chapter 01
00:05:00.000 : :Chapter 02
00:10:00.000 : :Chapter 03
00:15:00.000 : :Chapter 04
00:20:00.000 : :Chapter 05
00:25:00.000 : :Chapter 06
00:30:00.000 : :Chapter 07
00:35:00.000 : :Chapter 08
00:40:00.000 : :Chapter 09
00:45:00.000 : :Chapter 10
00:50:00.000 : :Chapter 11
00:55:00.000 : :Chapter 12
01:00:00.000 : :Chapter 13
01:05:00.000 : :Chapter 14
01:10:00.000 : :Chapter 15
01:15:00.000 : :Chapter 16
01:20:00.000 : :Chapter 17
01:25:00.000 : :Chapter 18
01:30:00.000 : :Chapter 19
01:35:00.000 : :Chapter 20
01:40:00.000 : :Chapter 21
01:45:00.000 : :Chapter 22
01:50:00.000 : :Chapter 23





_________________
Проголосуй за трекер Открытый торрент трекер - RUS-MEDIA.ORG

Проголосуй Открытый торрент трекер - RUS-MEDIA.ORG


Вернуться к началу
 Профиль Отправить личное сообщение  
 
   Похожие торренты   Автор   Торрент   Размер 
В этой теме нет новых непрочитанных сообщений. Охота / Jagten / The Hunt [драма, 2012] BDRip, Mvo

salma3

72 | 23

2.18 ГБ

В этой теме нет новых непрочитанных сообщений. Охота на дикарей / Hunt for the Wilderpeople [драма, комедия, приключения, 2016] BDRip 1080p, Dvo

marya111

54 | 23

7.75 ГБ

В этой теме нет новых непрочитанных сообщений. Охота на дикарей / Hunt for the Wilderpeople [Драма, комедия, приключения, 2016] BDRip 1080p, Mvo+Sub [Лицензия]

salma3

99 | 6

11 ГБ

В этой теме нет новых непрочитанных сообщений. Охота за «Красным Октябрем» / The Hunt for Red October [боевик, триллер, приключения, 1990] BDRip 1080p, Mvo

salma3

0 | 0

11.54 ГБ

В этой теме нет новых непрочитанных сообщений. Охота на дикарей / Hunt for the Wilderpeople [драма, комедия, приключения, 2016] Blu-ray CEE 1080p, Mvo [Лицензия]

salma3

8 | 5

27.64 ГБ

В этой теме нет новых непрочитанных сообщений. Охота на дикарей / Hunt for the Wilderpeople [Приключения, драма, комедия, 2016] BDRemux 1080p, Dvo

marya111

37 | 14

26.61 ГБ

В этой теме нет новых непрочитанных сообщений. Охота на дикарей / Hunt for the Wilderpeople [Драма, комедия, приключения, 2016] BDRip, Mvo+Sub [Лицензия]

salma3

4961 | 754

1.46 ГБ


Начать новую тему Ответить на тему  [ 1 сообщение ] 




Для Мосгорсуда, Роскомнадзора и рекламодателей:: mosgorsud-torrent[собачка]yandex.ru
cron