Торрент файл
скачать торрент магнет ссылка Добавлен: 14 фев 2017, 14:19
Размер: 5.26 ГБ
Сидеров: 15
Личеров: 8
Статус: (salma3)
Автор

СообщениеДобавлено: 14 фев 2017, 14:19 

Не в сети
Супермодератор
Аватара пользователя
Дата регистрации:
15 фев 2012, 16:44
Возраст: 28
Спасибо: 6640 / 2146
Сообщения: 45613
Год выпуска: 1991
Жанр: фантастика, боевик, комедия
Режиссер: Берт Кеннеди

В ролях: Халк Хоган, Кристофер Ллойд, Шелли Дювалл, Ларри Миллер, Уильям Болл, Джо Энн Диаринг, Джек Элам, Рой Дотрис, Тони Лонго, Майкл Фаустино

Описание:
Халк Хоган, играет роль интергалактического героя по имени Шеп. Миссия атлетичного Шепа — исправлять и перевоспитывать плохих. У героя есть специальный силовой костюм, который делает его практически неуязвимым. Когда космический корабль Шепа ломается, он совершает вынужденную посадку на планету Земля. Астронавт поселяется в пригороде, у семьи Уилкокс. Шеп отставляет силовой костюм дома, чтобы не привлекать внимания людей, и отправляется гулять по окрестностям, где он сразу обнаруживает несколько «плохишей». Это хамоватые разносчики газет, водители-лихачи и уличные грабители, которым Шеп преподаст суровый урок. Тем временем отец семейства обнаруживает силовой костюм астронавта и примеряет его…

Рейтинг на Кинопоиск.RU: 6.219
Рейтинг на MPAA: PG
Рейтинг на IMDB: 4.3/10


Страна: США
Продолжительность: 01:30:36
Перевод: Профессиональный (двухголосый)
Субтитры: английские

Формат: BDRip 720p
Видео: 1280x720p (16:9), 23,976 fps, MPEG4 AVC (x264), ~7500 Kbps avg, 0.339 bit/pixel
Аудио1: Русский 48 kHz, AC3, 2 ch ~ 192 Kbps
Аудио2: Русский 48 kHz, AC3, 2 ch ~ 192 Kbps
Аудио3: Русский 48 kHz, AC3, 2 ch ~ 192 Kbps
Аудио4: Украинский 48 kHz, AC3, 2 ch ~ 192 Kbps
Аудио5: Английский 48 kHz, AC3, 2 ch ~ 192 Kbps


Общее
Уникальный идентификатор : 220455046876508857919151067182192113162 (0xA5DA18FD6EC5070A8D6D05B44D63B60A)
Полное имя : F:\TREKER\ТЕМР\suburban_commando_[tfile.ru].mkv
Формат : Matroska
Версия формата : Version 2
Размер файла : 5,26 Гбайт
Продолжительность : 1 ч. 30 м.
Общий поток : 8313 Кбит/сек
Название фильма : suburban_commando_[tfile.ru]
Дата кодирования : UTC 2017-02-13 20:22:37
Программа кодирования : mkvmerge v4.0.0 ('The Stars were mine') сборка от Jun 6 2010 16:18:42
Библиотека кодирования : libebml v1.0.0 + libmatroska v1.0.0
Обложка : Yes
Attachments : cover.jpg

Видео
Идентификатор : 1
Формат : AVC
Формат/Информация : Advanced Video Codec
Профиль формата :
Параметр CABAC формата : Да
Параметр ReFrames формата : 6 кадров
Идентификатор кодека : V_MPEG4/ISO/AVC
Продолжительность : 1 ч. 30 м.
Битрейт : 7500 Кбит/сек
Ширина : 1280 пикселей
Высота : 720 пикселей
Соотношение сторон : 16:9
Режим частоты кадров : Постоянный
Частота кадров : 23,976 (24000/1001) кадра/сек
Частота кадров в оригинале : 23,976 (23976/1000) кадра/сек
Цветовое пространство : YUV
Субдискретизация насыщенности : 4:2:0
Битовая глубина : 8 бит
Тип развёртки : Прогрессивная
Бит/(Пиксели*Кадры) : 0.339
Размер потока : 4,55 Гбайт (86%)
Заголовок : suburban_commando_[tfile.ru]
Библиотека кодирования : x264 core 146 r2538 121396c
Настройки программы : cabac=1 / ref=6 / deblock=1:-1:-1 / analyse=0x3:0x133 / me=umh / subme=10 / psy=1 / psy_rd=1.00:0.15 / mixed_ref=1 / me_range=24 / chroma_me=1 / trellis=2 / 8x8dct=1 / cqm=0 / deadzone=21,11 / fast_pskip=0 / chroma_qp_offset=-3 / threads=12 / lookahead_threads=1 / sliced_threads=0 / nr=0 / decimate=1 / interlaced=0 / bluray_compat=0 / constrained_intra=0 / bframes=3 / b_pyramid=2 / b_adapt=2 / b_bias=0 / direct=1 / weightb=1 / open_gop=0 / weightp=2 / keyint=250 / keyint_min=23 / scenecut=40 / intra_refresh=0 / rc_lookahead=50 / rc=abr / mbtree=1 / bitrate=7500 / ratetol=1.0 / qcomp=0.69 / qpmin=0 / qpmax=69 / qpstep=4 / ip_ratio=1.40 / aq=1:1.00
Язык : English
Default : Нет
Forced : Нет

Аудио #1
Идентификатор : 2
Формат : AC-3
Формат/Информация : Audio Coding 3
Расширение режима : CM (complete main)
Параметр Endianness формата : Big
Идентификатор кодека : A_AC3
Продолжительность : 1 ч. 30 м.
Вид битрейта : Постоянный
Битрейт : 192 Кбит/сек
Каналы : 2 канала
Расположение каналов : Front: L R
Частота : 48,0 КГц
Частота кадров : 31,250 кадров/сек (1536 spf)
Битовая глубина : 16 бит
Метод сжатия : С потерями
Размер потока : 124 Мбайт (2%)
Заголовок : Профессиональный (двухголосый) (НТВ)
Язык : Russian
Default : Нет
Forced : Да

Аудио #2
Идентификатор : 3
Формат : AC-3
Формат/Информация : Audio Coding 3
Расширение режима : CM (complete main)
Параметр Endianness формата : Big
Идентификатор кодека : A_AC3
Продолжительность : 1 ч. 30 м.
Вид битрейта : Постоянный
Битрейт : 192 Кбит/сек
Каналы : 2 канала
Расположение каналов : Front: L R
Частота : 48,0 КГц
Частота кадров : 31,250 кадров/сек (1536 spf)
Битовая глубина : 16 бит
Метод сжатия : С потерями
Размер потока : 124 Мбайт (2%)
Заголовок : Профессиональный (многоголосый, закадровый)(СТС)
Язык : Russian
Default : Нет
Forced : Нет

Аудио #3
Идентификатор : 4
Формат : AC-3
Формат/Информация : Audio Coding 3
Расширение режима : CM (complete main)
Параметр Endianness формата : Big
Идентификатор кодека : A_AC3
Продолжительность : 1 ч. 30 м.
Вид битрейта : Постоянный
Битрейт : 192 Кбит/сек
Каналы : 2 канала
Расположение каналов : Front: L R
Частота : 48,0 КГц
Частота кадров : 31,250 кадров/сек (1536 spf)
Битовая глубина : 16 бит
Метод сжатия : С потерями
Размер потока : 124 Мбайт (2%)
Заголовок : Авторский (одноголосый)(А.Гаврилов)
Язык : Russian
Default : Нет
Forced : Нет

Аудио #4
Идентификатор : 5
Формат : AC-3
Формат/Информация : Audio Coding 3
Расширение режима : CM (complete main)
Параметр Endianness формата : Big
Идентификатор кодека : A_AC3
Продолжительность : 1 ч. 30 м.
Вид битрейта : Постоянный
Битрейт : 192 Кбит/сек
Каналы : 2 канала
Расположение каналов : Front: L R
Частота : 48,0 КГц
Частота кадров : 31,250 кадров/сек (1536 spf)
Битовая глубина : 16 бит
Метод сжатия : С потерями
Размер потока : 124 Мбайт (2%)
Заголовок : Профессиональный (двухголосый) (1+1)
Язык : Ukrainian
Default : Нет
Forced : Нет

Аудио #5
Идентификатор : 6
Формат : AC-3
Формат/Информация : Audio Coding 3
Расширение режима : CM (complete main)
Параметр Endianness формата : Big
Идентификатор кодека : A_AC3
Продолжительность : 1 ч. 30 м.
Вид битрейта : Постоянный
Битрейт : 192 Кбит/сек
Каналы : 2 канала
Расположение каналов : Front: L R
Частота : 48,0 КГц
Частота кадров : 31,250 кадров/сек (1536 spf)
Битовая глубина : 16 бит
Метод сжатия : С потерями
Размер потока : 124 Мбайт (2%)
Заголовок : Оригнал
Язык : English
Default : Нет
Forced : Нет

Текст
Идентификатор : 7
Формат : UTF-8
Идентификатор кодека : S_TEXT/UTF8
Идентификатор кодека/Информация : UTF-8 Plain Text
Язык : English
Default : Нет
Forced : Нет

Меню
00:00:00.000 : en:Chapter 01
00:06:53.334 : en:Chapter 02
00:11:50.168 : en:Chapter 03
00:16:05.168 : en:Chapter 04
00:20:13.168 : en:Chapter 05
00:23:07.235 : en:Chapter 06
00:28:10.302 : en:Chapter 07
00:32:28.636 : en:Chapter 08
00:37:49.769 : en:Chapter 09
00:42:45.069 : en:Chapter 10
00:46:10.736 : en:Chapter 11
00:49:51.236 : en:Chapter 12
00:53:47.903 : en:Chapter 13
00:58:34.903 : en:Chapter 14
01:03:00.470 : en:Chapter 15
01:07:46.304 : en:Chapter 16
01:11:42.304 : en:Chapter 17
01:18:23.471 : en:Chapter 18
01:22:23.871 : en:Chapter 19
01:25:05.205 : en:Chapter 20
01:30:29.705 : en:Chapter 21


Релиз от:


_________________
Проголосуй за трекер Открытый торрент трекер - RUS-MEDIA.ORG

Проголосуй Открытый торрент трекер - RUS-MEDIA.ORG



реклама партнёра


Вернуться к началу
 Профиль Отправить личное сообщение  
 
   Похожие торренты   Автор   Торрент   Размер 
В этой теме нет новых непрочитанных сообщений. Коммандо из пригорода / Suburban Commando [фантастика, боевик, комедия, 1991] WEB-DLRip, Mvo+Avo

salma3

0 | 0

1.45 ГБ

В этой теме нет новых непрочитанных сообщений. Коммандо из пригорода / Suburban Commando [фантастика, боевик, комедия, 1991] WEB-DL 1080p, Mvo

salma3

3 | 2

9.07 ГБ

В этой теме нет новых непрочитанных сообщений. Гайвер / Guyver [Фантастика, боевик, комедия, 1991] BDRip 720p, 4Avo+Sub

salma3

82 | 3

4.89 ГБ

В этой теме нет новых непрочитанных сообщений. Бомба замедленного действия / Timebomb [фантастика, боевик, триллер, 1991] BDRip 720p, Mvo

salma3

8 | 7

6.45 ГБ

В этой теме нет новых непрочитанных сообщений. Напролом / The Hard Way [боевик, комедия, криминал, 1991] BDRip 720p, Dub+Mvo+Avo+Sub

salma3

15 | 7

5.52 ГБ

В этой теме нет новых непрочитанных сообщений. Последний бойскаут / The Last Boy Scout [Боевик, триллер, комедия, 1991] BDRip 720p, 3Avo+Sub

salma3

55 | 9

7.38 ГБ

В этой теме нет новых непрочитанных сообщений. Рожденный вором / Zong heng si hai [боевик, триллер, комедия, криминал, 1991] BDRip 720p, Mvo

salma3

244 | 99

4.16 ГБ


Начать новую тему Ответить на тему  [ 1 сообщение ] 




Для Мосгорсуда, Роскомнадзора и рекламодателей:: mosgorsud-torrent[собачка]yandex.ru