Торрент файл
скачать торрент магнет ссылка Добавлен: 13 фев 2017, 21:50
Размер: 12.42 ГБ
Сидеров: 133
Личеров: 71
Статус: (salma3)
Автор

СообщениеДобавлено: 13 фев 2017, 21:50 

Не в сети
Супермодератор
Аватара пользователя
Дата регистрации:
15 фев 2012, 16:44
Возраст: 28
Спасибо: 6672 / 2146
Сообщения: 46181
Год выхода: 2016
Жанр: Ужасы, триллер
Режиссер: Адам Вингард

В ролях: Джеймс Аллен МакКьюн, Калли Эрнандес, Корбин Рейд, Брэндон Скотт, Уэс Робинсон, Вэлори Керри

О фильме:
После обнаружения загадочной видеозаписи у Джеймса появляется надежда найти свою пропавшую сестру. Вместе с группой друзей он решается отправиться в лес Блэк Хиллз, известный по легенде о ведьме из Блэр. Но никакая самая страшная легенда не сравнится с тем кошмаром, который ждет их в реальности.



Страна: США
Продолжительность: 01:29:11
Перевод(ы):
#1: Дублированный | Лицензия
#2: Авторский | А. Матвеев (Doctor Joker)

Файл
Качество: BDRip 1080p
Видео: MPEG-4 AVC, 1920x1038, 18.0 Mbit/s, 23.976 fps
Звук:
Аудио #01: 48 kHz, AC3, 5.1, 640 Kbps | Дублированный |
Аудио #02: 48 kHz, AC3, 5.1, 640 Kbps | Авторский |
Аудио #03: 48 kHz, AC3, 5.1, 640 kbps | Оригинал |
Субтитры: Русские, английские
General
Unique ID : 192396189457367055326038362521485427580 (0x90BE2882D2953EFCABD5C399C68BC37C)
Complete name : G:VideoBlair.Witch.2016.BDRip.1080p.ExKinoRay.mkv
Format : Matroska
Format version : Version 4 / Version 2
File size : 12.4 GiB
Duration : 1 h 29 min
Overall bit rate : 19.9 Mb/s
Movie name : Blair.Witch.2016 ***селезень***
Encoded date : UTC 2017-02-13 15:26:21
Writing application : mkvmerge v8.3.0 ('Over the Horizon') 64bit
Writing library : libebml v1.3.1 + libmatroska v1.4.2
Cover : Yes
Attachments : cover.jpg

Video
ID : 1
Format : AVC
Format/Info : Advanced Video Codec
Format profile : High@L4.1
Format settings, CABAC : Yes
Format settings, ReFrames : 4 frames
Codec ID : V_MPEG4/ISO/AVC
Duration : 1 h 29 min
Bit rate : 18.0 Mb/s
Width : 1 920 pixels
Height : 1 038 pixels
Display aspect ratio : 1.85:1
Frame rate mode : Constant
Frame rate : 23.976 (24000/1001) FPS
Color space : YUV
Chroma subsampling : 4:2:0
Bit depth : 8 bits
Scan type : Progressive
Bits/(Pixel*Frame) : 0.377
Stream size : 11.2 GiB (90%)
Title : Blair.Witch.2016 ***селезень***
Writing library : x264 core 148 r2744 b97ae06
Encoding settings : cabac=1 / ref=4 / deblock=1:-3:-3 / analyse=0x3:0x133 / me=tesa / subme=11 / psy=1 / psy_rd=1.00:0.00 / mixed_ref=1 / me_range=32 / chroma_me=1 / trellis=2 / 8x8dct=1 / cqm=0 / deadzone=21,11 / fast_pskip=0 / chroma_qp_offset=-2 / threads=32 / lookahead_threads=8 / sliced_threads=0 / nr=0 / decimate=0 / interlaced=0 / bluray_compat=0 / constrained_intra=0 / bframes=11 / b_pyramid=2 / b_adapt=2 / b_bias=0 / direct=3 / weightb=1 / open_gop=0 / weightp=2 / keyint=240 / keyint_min=23 / scenecut=40 / intra_refresh=0 / rc_lookahead=150 / rc=crf / mbtree=0 / crf=18.0 / qcomp=0.60 / qpmin=0 / qpmax=69 / qpstep=4 / vbv_maxrate=62500 / vbv_bufsize=78125 / crf_max=0.0 / nal_hrd=none / filler=0 / ip_ratio=1.40 / pb_ratio=1.30 / aq=1:0.80 / zones=118181,128304,b=0.2
Language : English
Default : Yes
Forced : No
Color range : Limited
Matrix coefficients : BT.709

Audio #1
ID : 2
Format : AC-3
Format/Info : Audio Coding 3
Mode extension : CM (complete main)
Format settings, Endianness : Big
Codec ID : A_AC3
Duration : 1 h 29 min
Bit rate mode : Constant
Bit rate : 640 kb/s
Channel(s) : 6 channels
Channel positions : Front: L C R, Side: L R, LFE
Sampling rate : 48.0 kHz
Frame rate : 31.250 FPS (1536 spf)
Bit depth : 16 bits
Compression mode : Lossy
Stream size : 408 MiB (3%)
Title : Dub [License]
Language : Russian
Default : Yes
Forced : No

Audio #2
ID : 3
Format : AC-3
Format/Info : Audio Coding 3
Mode extension : CM (complete main)
Format settings, Endianness : Big
Codec ID : A_AC3
Duration : 1 h 29 min
Bit rate mode : Constant
Bit rate : 640 kb/s
Channel(s) : 6 channels
Channel positions : Front: L C R, Side: L R, LFE
Sampling rate : 48.0 kHz
Frame rate : 31.250 FPS (1536 spf)
Bit depth : 16 bits
Compression mode : Lossy
Stream size : 408 MiB (3%)
Title : AVO [Matveev]
Language : Russian
Default : No
Forced : No

Audio #3
ID : 4
Format : AC-3
Format/Info : Audio Coding 3
Mode extension : CM (complete main)
Format settings, Endianness : Big
Codec ID : A_AC3
Duration : 1 h 29 min
Bit rate mode : Constant
Bit rate : 640 kb/s
Channel(s) : 6 channels
Channel positions : Front: L C R, Side: L R, LFE
Sampling rate : 48.0 kHz
Frame rate : 31.250 FPS (1536 spf)
Bit depth : 16 bits
Compression mode : Lossy
Stream size : 408 MiB (3%)
Title : Original
Language : English
Default : No
Forced : No

Text #1
ID : 5
Format : UTF-8
Codec ID : S_TEXT/UTF8
Codec ID/Info : UTF-8 Plain Text
Duration : 1 h 23 min
Bit rate : 82 b/s
Count of elements : 737
Stream size : 50.4 KiB (0%)
Title : Full [Matveev]
Language : Russian
Default : No
Forced : No

Text #2
ID : 6
Format : UTF-8
Codec ID : S_TEXT/UTF8
Codec ID/Info : UTF-8 Plain Text
Duration : 1 h 21 min
Bit rate : 56 b/s
Count of elements : 1156
Stream size : 33.6 KiB (0%)
Title : Full
Language : English
Default : No
Forced : No

Text #3
ID : 7
Format : UTF-8
Codec ID : S_TEXT/UTF8
Codec ID/Info : UTF-8 Plain Text
Duration : 1 h 21 min
Bit rate : 69 b/s
Count of elements : 1380
Stream size : 41.3 KiB (0%)
Title : SDH
Language : English
Default : No
Forced : No

Menu
00:00:00.000 : en:Chapter 1
00:05:09.351 : en:Chapter 2
00:08:24.337 : en:Chapter 3
00:10:57.740 : en:Chapter 4
00:16:17.268 : en:Chapter 5
00:21:14.440 : en:Chapter 6
00:29:41.279 : en:Chapter 7
00:35:57.822 : en:Chapter 8
00:40:35.433 : en:Chapter 9
00:46:00.257 : en:Chapter 10
00:52:30.647 : en:Chapter 11
00:59:20.724 : en:Chapter 12
01:04:41.794 : en:Chapter 13
01:09:51.479 : en:Chapter 14
01:15:52.339 : en:Chapter 15
01:20:29.283 : en:Chapter 16


Релиз от: Автор релиза:


_________________
Проголосуй за трекер Открытый торрент трекер - RUS-MEDIA.ORG

Проголосуй Открытый торрент трекер - RUS-MEDIA.ORG



реклама партнёра


Вернуться к началу
 Профиль Отправить личное сообщение  
 
   Похожие торренты   Автор   Торрент   Размер 
В этой теме нет новых непрочитанных сообщений. Ведьма из Блэр: Новая глава / Blair Witch [Ужасы, триллер, 2016] BDRip-AVC, Dub+Sub [Лицензия]

salma3

48 | 14

2.68 ГБ

В этой теме нет новых непрочитанных сообщений. Ведьма из Блэр: Новая глава / Blair Witch [Ужасы, триллер, 2016] BDRip 720p, Dub+Avo+Sub [Лицензия]

salma3

67 | 13

3.26 ГБ

В этой теме нет новых непрочитанных сообщений. Ведьма из Блэр: Новая глава / Blair Witch [ужасы, мистика, триллер, 2016] BDRip, Dub [Лицензия]

salma3

98 | 99

1.46 ГБ

В этой теме нет новых непрочитанных сообщений. Ведьма из Блэр: Новая глава / Blair Witch [ужасы, мистика, триллер, 2016] BDRip, Dub [Лицензия]

salma3

84 | 52

745.83 МБ

В этой теме нет новых непрочитанных сообщений. Ведьма из Блэр: Новая глава / Blair Witch (Ужасы, триллер, 2016) BDRip 1080p от ExKinoRay | A

marya111

0 | 0

12.96 ГБ

В этой теме нет новых непрочитанных сообщений. Ведьма из Блэр: Новая глава / Blair Witch [Ужасы, триллер, 2016] BDRemux 1080p, Avo

salma3

17 | 5

26.92 ГБ

В этой теме нет новых непрочитанных сообщений. Ведьма из Блэр: Новая глава / Blair Witch ( Ужасы, триллер, 2016) BDRip от MegaPeer | A

marya111

2081 | 102

1.46 ГБ


Начать новую тему Ответить на тему  [ 1 сообщение ] 




Для Мосгорсуда, Роскомнадзора и рекламодателей:: mosgorsud-torrent[собачка]yandex.ru