Торрент файл
скачать торрент магнет ссылка Добавлен: 13 фев 2017, 13:42
Размер: 7.93 ГБ
Сидеров: 65
Личеров: 32
Статус: (salma3)
Автор

СообщениеДобавлено: 13 фев 2017, 13:43 

Не в сети
Супермодератор
Аватара пользователя
Дата регистрации:
15 фев 2012, 16:44
Возраст: 28
Спасибо: 7290 / 2147
Сообщения: 70478
Год выхода: 2013
Жанр: фэнтези, триллер, драма
Режиссер: Джим Джармуш
Выпущено: Великобритания, Германия, Греция
Продолжительность: 02:03:01
Перевод: Дублированный
В ролях: Тильда Суинтон, Том Хиддлстон, Антон Ельчин, Миа Васиковска, Джон Хёрт, Джеффри Райт, Слиман Дази, Картер Логан, Орели Тепо, Али Эмин
[/list]

Сюжет фильма
    История древних вампиров Адама и Евы, которые видели ещё татаро-монгольское иго и инквизиции. Адам — рокер из Детройта, играющий андеграунд-музыку. Он уже очень старый, он хочет тишины, покоя, и тихо ненавидит «зомби» (так вампиры зовут людей). Ева же — напротив, весьма жизнерадостная вампирелла постарше, общающаяся с поэтом времён Шекспира, Кристофером Марло, и живущая в Танжере. Она приезжает вытаскивать своего любовника из пучины депрессии. Но идиллию нарушает внезапно заявляющаяся младшая сестра Евы — Ава. Исход ситуации предсказать не в силах никто — выживут только любовники?


Файл
    Качество: BDRip 1080p (исходник Blu-Ray Disc Remux)
    Формат: MKV
    Видео: 1920x1038, 8355 Кбит/сек, 23,976 кадр/сек, AVC, x264, High@L4.1, 1.85:1, 0.175 Бит/[Пиксели*Кадры]
    Аудио 1: AC-3, 448 Кбит/сек, 6 канала(ов), 48,0 КГц - Дублированный / Русский
    Аудио 2: AC-3, 448 Кбит/сек, 6 канала(ов), 48,0 КГц - Оригинал / Английский
    Субтитры: Русские | Полные (Doctor_Joker), Английские | Полные
    Форсированные субтитры: Нет
    Чаптеры (Главы): Есть
    Примечание: Русские субтитры содержат нецензурные выражения.




Автор Рипа: Группа:




Format : Matroska
Format version : Version 2
File size : 7.93 GiB
Duration : 2 h 3 min
Overall bit rate : 9 227 kb/s
Movie name : Only Lovers Left Alive.(2003).BDRip.1080p.[envy]
Encoded date : UTC 2017-02-13 03:36:44
Writing application : mkvmerge v5.8.0 ('No Sleep / Pillow') built on Sep 2 2012 15:37:04
Writing library : libebml v1.2.3 + libmatroska v1.3.0

Video
ID : 1
Format : AVC
Format/Info : Advanced Video Codec
Format profile : High@L4.1
Format settings, CABAC : Yes
Format settings, ReFrames : 4 frames
Codec ID : V_MPEG4/ISO/AVC
Duration : 2 h 3 min
Bit rate : 8 355 kb/s
Width : 1 920 pixels
Height : 1 038 pixels
Display aspect ratio : 1.85:1
Frame rate mode : Constant
Frame rate : 23.976 (24000/1001) FPS
Color space : YUV
Chroma subsampling : 4:2:0
Bit depth : 8 bits
Scan type : Progressive
Bits/(Pixel*Frame) : 0.175
Stream size : 7.00 GiB (88%)
Title : Only Lovers Left Alive.(2003).BDRip.1080p.[envy]
Writing library : x264 core 148 r2744 b97ae06
Encoding settings : cabac=1 / ref=4 / deblock=1:-3:-3 / analyse=0x3:0x133 / me=umh / subme=11 / psy=1 / psy_rd=1.00:0.00 / mixed_ref=1 / me_range=32 / chroma_me=1 / trellis=2 / 8x8dct=1 / cqm=0 / deadzone=21,11 / fast_pskip=0 / chroma_qp_offset=-2 / threads=12 / lookahead_threads=1 / sliced_threads=0 / nr=0 / decimate=1 / interlaced=0 / bluray_compat=0 / constrained_intra=0 / bframes=5 / b_pyramid=2 / b_adapt=2 / b_bias=0 / direct=3 / weightb=1 / open_gop=0 / weightp=2 / keyint=240 / keyint_min=23 / scenecut=40 / intra_refresh=0 / rc=2pass / mbtree=0 / bitrate=8355 / ratetol=2.0 / qcomp=0.60 / qpmin=0 / qpmax=69 / qpstep=4 / cplxblur=20.0 / qblur=0.5 / ip_ratio=1.40 / pb_ratio=1.30 / aq=2:0.70
Language : English
Default : Yes
Forced : No

Audio #1
ID : 2
Format : AC-3
Format/Info : Audio Coding 3
Mode extension : CM (complete main)
Format settings, Endianness : Big
Codec ID : A_AC3
Duration : 2 h 3 min
Bit rate mode : Constant
Bit rate : 448 kb/s
Channel(s) : 6 channels
Channel positions : Front: L C R, Side: L R, LFE
Sampling rate : 48.0 kHz
Frame rate : 31.250 FPS (1536 spf)
Compression mode : Lossy
Stream size : 394 MiB (5%)
Title : Dub
Language : Russian
Default : Yes
Forced : No

Audio #2
ID : 3
Format : AC-3
Format/Info : Audio Coding 3
Mode extension : CM (complete main)
Format settings, Endianness : Big
Codec ID : A_AC3
Duration : 2 h 3 min
Bit rate mode : Constant
Bit rate : 448 kb/s
Channel(s) : 6 channels
Channel positions : Front: L C R, Side: L R, LFE
Sampling rate : 48.0 kHz
Frame rate : 31.250 FPS (1536 spf)
Compression mode : Lossy
Stream size : 394 MiB (5%)
Title : Eng
Language : English
Default : No
Forced : No

Text #1
ID : 4
Format : UTF-8
Codec ID : S_TEXT/UTF8
Codec ID/Info : UTF-8 Plain Text
Title : Rus full [Doctor_Joker]
Language : Russian
Default : No
Forced : No

Text #2
ID : 5
Format : UTF-8
Codec ID : S_TEXT/UTF8
Codec ID/Info : UTF-8 Plain Text
Title : Eng full
Language : English
Default : No
Forced : No

Menu
00:00:00.000 : :Chapter 01
00:13:01.280 : :Chapter 02
00:21:01.885 : :Chapter 03
00:35:11.317 : :Chapter 04
00:46:07.806 : :Chapter 05
00:57:40.165 : :Chapter 06
01:05:43.773 : :Chapter 07
01:23:17.242 : :Chapter 08
01:33:42.116 : :Chapter 09
01:45:24.609 : :Chapter 10
01:53:36.976 : :Chapter 11
01:56:28.982 : :Chapter 12
02:03:00.915 : :Chapter 13



_________________
Проголосуй за трекер Открытый торрент трекер - RUS-MEDIA.ORG

Проголосуй Открытый торрент трекер - RUS-MEDIA.ORG


Вернуться к началу
 Профиль Отправить личное сообщение  
 
   Похожие торренты   Автор   Торрент   Размер 
В этой теме нет новых непрочитанных сообщений. Выживут только любовники / Only Lovers Left Alive [фэнтези, триллер, драма, 2013] BDRip 720p, Dub

salma3

37 | 10

11.39 ГБ

В этой теме нет новых непрочитанных сообщений. Летние любовники / Summer lovers [мелодрама, комедия, 1982] BDRip 1080p, Dvo

salma3

56 | 52

14.18 ГБ

В этой теме нет новых непрочитанных сообщений. Любовники / The Lovers [Комедия, драма, мелодрама, 2017] BDRip, Mvo [iTunes]

salma3

120 | 34

1.42 ГБ

В этой теме нет новых непрочитанных сообщений. Любовники / The Lovers [Комедия, драма, мелодрама, 2017] BDRip-AVC, Mvo [iTunes]

salma3

0 | 0

1.8 ГБ

В этой теме нет новых непрочитанных сообщений. Любовники / The Lovers [Комедия, драма, мелодрама, 2017] BDRip 720p, Mvo [iTunes]

salma3

7 | 11

4.63 ГБ

В этой теме нет новых непрочитанных сообщений. Летние любовники / Summer lovers [драма, мелодрама, комедия, 1982] BDRemux 1080p, Dvo+Avo+Sub

salma3

8 | 2

25.09 ГБ

В этой теме нет новых непрочитанных сообщений. Любовники / The Lovers [комедия, 2016] BDRip 720p, Mvo

salma3

39 | 8

2.87 ГБ


Начать новую тему Ответить на тему  [ 1 сообщение ] 




Для Мосгорсуда, Роскомнадзора и рекламодателей:: mosgorsud-torrent[собачка]yandex.ru
cron