Торрент файл
скачать торрент магнет ссылка Добавлен: 12 фев 2017, 15:59
Размер: 6.85 ГБ
Сидеров: 25
Личеров: 18
Статус: (salma3)
Автор

СообщениеДобавлено: 12 фев 2017, 15:59 

Не в сети
Супермодератор
Аватара пользователя
Дата регистрации:
15 фев 2012, 16:44
Возраст: 28
Спасибо: 6640 / 2146
Сообщения: 45613
Год выхода: 1986
Жанр: Боевик, боевые искусства
Режиссер: Дэвид Чунг

В ролях: Мишель Йео, Майкл Вонг, Хироюки Санада, Бай Ин, Деннис Чан, Кинг Чан, Квок Куэнь Чан, Уай-Ман Чан

О фильме:
Обычный рейс самолета по маршруту Токио — Гонконг превращается в трагедию. Именно этот рейс выбрали террористы, они требуют изменить маршрут.
Оказавшиеся среди пассажиров два спецагента пытаются мирно разрешить конфликт, но в возникшей суматохе происходит перестрелка, преступников арестовывают, а их главаря убивают. Кажется, конфликт исчерпан, но бандиты долгов не забывают…

Страна: Гонконг
Продолжительность: 01:36:02
Перевод: Авторский [одноголосый, закадровый] [Вадим Белов]

Файл
Кодек: x264, AVC
Качество: BDRip 1080p
Видео: 1920x1080, 10000 kbps, 23,976 fps
Звук: AC3, 224 kbps, 48 KHz, 2 channels

Чаптеры сохранены

General
Unique ID : 207454465030796196401305065558342621645 (0x9C1246D138AAA832BC887C98005BD9CD)
Complete name : Королевские воины [Wong ga jin si, 1986] 1080p.mkv
Format : Matroska
Format version : Version 2
File size : 6.85 GiB
Duration : 1 h 36 min
Overall bit rate : 10.2 Mb/s
Movie name : Королевские воины (1986)
Encoded date : UTC 2017-02-11 13:38:39
Writing application : mkvmerge v4.2.0 ('No Talking') сборка от Jul 28 2010 18:38:23
Writing library : libebml v1.0.0 + libmatroska v1.0.0

Video
ID : 1
Format : AVC
Format/Info : Advanced Video Codec
Format profile : High@L4.1
Format settings, CABAC : Yes
Format settings, ReFrames : 4 frames
Muxing mode : Header stripping
Codec ID : V_MPEG4/ISO/AVC
Duration : 1 h 36 min
Bit rate : 10 000 kb/s
Width : 1 920 pixels
Height : 1 080 pixels
Display aspect ratio : 16:9
Frame rate mode : Constant
Frame rate : 23.976 (24000/1001) FPS
Color space : YUV
Chroma subsampling : 4:2:0
Bit depth : 8 bits
Scan type : Progressive
Bits/(Pixel*Frame) : 0.201
Stream size : 6.57 GiB (96%)
Title : Royal Warriors (1986)
Writing library : x264 core 148 r2638 7599210
Encoding settings : cabac=1 / ref=4 / deblock=1:-3:-3 / analyse=0x3:0x133 / me=umh / subme=11 / psy=1 / psy_rd=1.00:0.15 / mixed_ref=1 / me_range=64 / chroma_me=1 / trellis=2 / 8x8dct=1 / cqm=0 / deadzone=21,11 / fast_pskip=1 / chroma_qp_offset=-3 / threads=6 / lookahead_threads=1 / sliced_threads=0 / nr=0 / decimate=1 / interlaced=0 / bluray_compat=0 / constrained_intra=0 / bframes=3 / b_pyramid=2 / b_adapt=2 / b_bias=0 / direct=3 / weightb=1 / open_gop=0 / weightp=2 / keyint=240 / keyint_min=23 / scenecut=40 / intra_refresh=0 / rc_lookahead=60 / rc=2pass / mbtree=1 / bitrate=10000 / ratetol=1.0 / qcomp=0.60 / qpmin=0 / qpmax=51 / qpstep=4 / cplxblur=20.0 / qblur=0.5 / vbv_maxrate=62500 / vbv_bufsize=78125 / nal_hrd=none / filler=0 / ip_ratio=1.40 / aq=1:1.00
Default : Yes
Forced : No

Audio
ID : 2
Format : AC-3
Format/Info : Audio Coding 3
Mode extension : CM (complete main)
Format settings, Endianness : Big
Muxing mode : Header stripping
Codec ID : A_AC3
Duration : 1 h 36 min
Bit rate mode : Constant
Bit rate : 224 kb/s
Channel(s) : 2 channels
Channel positions : Front: L R
Sampling rate : 48.0 kHz
Frame rate : 31.250 FPS (1536 spf)
Compression mode : Lossy
Stream size : 154 MiB (2%)
Title : Вадим Белов
Language : Russian
Default : Yes
Forced : No

Menu
00:00:00.000 : en:00:00:00.000
00:04:50.665 : en:00:04:50.665
00:08:11.074 : en:00:08:11.074
00:13:27.932 : en:00:13:27.932
00:17:31.050 : en:00:17:31.050
00:22:03.697 : en:00:22:03.697
00:28:40.886 : en:00:28:40.886
00:32:26.194 : en:00:32:26.194
00:37:26.870 : en:00:37:26.870
00:44:34.964 : en:00:44:34.964
00:47:21.422 : en:00:47:21.422
00:53:25.327 : en:00:53:25.327
00:58:35.887 : en:00:58:35.887
01:03:51.286 : en:01:03:51.286
01:07:45.937 : en:01:07:45.937
01:11:14.770 : en:01:11:14.770
01:16:43.349 : en:01:16:43.349
01:20:33.704 : en:01:20:33.704
01:25:37.466 : en:01:25:37.466
01:30:38.725 : en:01:30:38.725


_________________
Проголосуй за трекер Открытый торрент трекер - RUS-MEDIA.ORG

Проголосуй Открытый торрент трекер - RUS-MEDIA.ORG



реклама партнёра


Вернуться к началу
 Профиль Отправить личное сообщение  
 
   Похожие торренты   Автор   Торрент   Размер 
В этой теме нет новых непрочитанных сообщений. Королевские воины / Wong ga jin si [Боевик, боевые искусства, 1986] BDRip 720p, Avo

salma3

44 | 7

3.92 ГБ

В этой теме нет новых непрочитанных сообщений. Зло во благо / Над законом / Zhi fa xian feng [Боевик, боевые искусства, 1986] BDRip 1080p, Avo

salma3

30 | 12

6.94 ГБ

В этой теме нет новых непрочитанных сообщений. Легенда / Fong Sai Yuk [Боевик, боевые искусства, 1993] BDRip 1080p, Mvo

salma3

42 | 7

6.07 ГБ

В этой теме нет новых непрочитанных сообщений. Два воина / Tai ji: Zhang San Feng [Боевик, боевые искусства, 1993] BDRip 1080p, Mvo

salma3

65 | 24

6.11 ГБ

В этой теме нет новых непрочитанных сообщений. Рука смерти / Shao Lin men [Боевик, боевые искусства, 1976] BDRip 1080p, Mvo

salma3

13 | 8

6.57 ГБ

В этой теме нет новых непрочитанных сообщений. Великолепный мясник / Lin Shi Rong [Боевик, боевые искусства, комедия, 1979] BDRip 1080p, Avo

salma3

73 | 19

7.87 ГБ

В этой теме нет новых непрочитанных сообщений. Моли о смерти / Pray for Death [Боевик, боевые искусства, 1985] BDRip 1080p, Dvo+Avo

salma3

15 | 13

6.12 ГБ


Начать новую тему Ответить на тему  [ 1 сообщение ] 




Для Мосгорсуда, Роскомнадзора и рекламодателей:: mosgorsud-torrent[собачка]yandex.ru