Торрент файл
скачать торрент магнет ссылка Добавлен: 12 фев 2017, 13:43
Размер: 7.95 ГБ
Сидеров: 69
Личеров: 32
Статус: (salma3)
Автор

СообщениеДобавлено: 12 фев 2017, 13:43 

Не в сети
Супермодератор
Аватара пользователя
Дата регистрации:
15 фев 2012, 16:44
Возраст: 30
Спасибо: 8109 / 2147
Сообщения: 93271
Год выпуска: 2003
Жанр: фэнтези, драма, приключения
Режиссер: Тим Бёртон

В ролях: Юэн МакГрегор, Альберт Финни, Билли Крудап, Джессика Лэнг, Хелена Бонем Картер, Элисон Ломан, Роберт Гийом, Марион Котийяр, Стив Бушеми, Дэнни ДеВито

Описание: В основу этой приключенческой ленты положен роман Дэниела Уоллеса «Большая рыба: роман мифических пропорций». Умирает отец, о жизни которого сын хочет узнать как можно больше, собирая истории о нем.
Сын пытается воссоздать ускользающую жизнь отца в серии легенд и мифов, которые тот придумывает на основе разрозненных фактов. Взлеты и падения в жизни человека в итоге предстают в неожиданном ракурсе.



Страна: США
Продолжительность: 02:05:09
Перевод: Профессиональный (полное дублирование)
Субтитры: Русские, английские

Формат: BDRip 1080p
Видео: 1920x1040p (1.85:1), 23.976 fps, AVC MPEG-4 (H.264), ~8010 kbps, 0.167 bit/pixel
Аудио1: Русский: 48 kHz, AC3 Dolby Digital, 6 ch, ~448 kbps
Аудио2: Английский: 48 kHz, AC3 Dolby Digital, 6 ch, ~640 kbps

Format : Matroska
Format version : Version 4 / Version 2
File size : 7.95 GiB
Duration : 2h 5mn
Overall bit rate : 9 092 Kbps
Movie name : Крупная Рыба.(2003).BDRip.1080p.[envy]
Encoded date : UTC 2013-09-20 04:57:29
Writing application : mkvmerge v6.4.1 ('Omega Point') built on Sep 16 2013 22:05:10
Writing library : libebml v1.3.0 + libmatroska v1.4.1

Video
ID : 1
Format : AVC
Format/Info : Advanced Video Codec
Format profile :
Format settings, CABAC : Yes
Format settings, ReFrames : 4 frames
Codec ID : V_MPEG4/ISO/AVC
Duration : 2h 5mn
Bit rate : 8 010 Kbps
Width : 1 920 pixels
Height : 1 040 pixels
Display aspect ratio : 1.85:1
Frame rate mode : Constant
Frame rate : 23.976 fps
Color space : YUV
Chroma subsampling : 4:2:0
Bit depth : 8 bits
Scan type : Progressive
Bits/(Pixel*Frame) : 0.167
Stream size : 6.84 GiB (86%)
Title : Крупная Рыба.(2003).BDRip.1080p.[envy]
Writing library : x264 core 138 r2358 9e941d1
Encoding settings : cabac=1 / ref=4 / deblock=1:-3:-3 / analyse=0x3:0x133 / me=umh / subme=11 / psy=1 / psy_rd=1.00:0.00 / mixed_ref=1 / me_range=32 / chroma_me=1 / trellis=2 / 8x8dct=1 / cqm=0 / deadzone=21,11 / fast_pskip=0 / chroma_qp_offset=-2 / threads=12 / lookahead_threads=1 / sliced_threads=0 / nr=0 / decimate=1 / interlaced=0 / bluray_compat=0 / constrained_intra=0 / bframes=6 / b_pyramid=2 / b_adapt=2 / b_bias=0 / direct=3 / weightb=1 / open_gop=0 / weightp=2 / keyint=240 / keyint_min=23 / scenecut=40 / intra_refresh=0 / rc=2pass / mbtree=0 / bitrate=8010 / ratetol=2.0 / qcomp=0.60 / qpmin=0 / qpmax=69 / qpstep=4 / cplxblur=20.0 / qblur=0.5 / ip_ratio=1.40 / pb_ratio=1.30 / aq=1:0.80
Language : English
Default : Yes
Forced : No

Audio #1
ID : 2
Format : AC-3
Format/Info : Audio Coding 3
Mode extension : CM (complete main)
Format settings, Endianness : Big
Codec ID : A_AC3
Duration : 2h 5mn
Bit rate mode : Constant
Bit rate : 448 Kbps
Channel(s) : 6 channels
Channel positions : Front: L C R, Side: L R, LFE
Sampling rate : 48.0 KHz
Bit depth : 16 bits
Compression mode : Lossy
Stream size : 401 MiB (5%)
Title : Дубляж
Language : Russian
Default : Yes
Forced : No

Audio #2
ID : 3
Format : AC-3
Format/Info : Audio Coding 3
Mode extension : CM (complete main)
Format settings, Endianness : Big
Codec ID : A_AC3
Duration : 2h 5mn
Bit rate mode : Constant
Bit rate : 640 Kbps
Channel(s) : 6 channels
Channel positions : Front: L C R, Side: L R, LFE
Sampling rate : 48.0 KHz
Bit depth : 16 bits
Compression mode : Lossy
Stream size : 573 MiB (7%)
Title : Оригинал
Language : English
Default : No
Forced : No

Text #1
ID : 4
Format : UTF-8
Codec ID : S_TEXT/UTF8
Codec ID/Info : UTF-8 Plain Text
Title : Полные
Language : Russian
Default : No
Forced : No

Text #2
ID : 5
Format : UTF-8
Codec ID : S_TEXT/UTF8
Codec ID/Info : UTF-8 Plain Text
Title : Full
Language : English
Default : No
Forced : No

Menu
00:00:00.000 : :Chapter 01
00:04:52.750 : :Chapter 02
00:07:55.433 : :Chapter 03
00:12:12.440 : :Chapter 04
00:19:04.101 : :Chapter 05
00:23:47.884 : :Chapter 06
00:29:47.702 : :Chapter 07
00:39:46.384 : :Chapter 08
00:45:56.044 : :Chapter 09
00:59:19.639 : :Chapter 10
01:01:56.921 : :Chapter 11
01:09:24.451 : :Chapter 12
01:18:41.508 : :Chapter 13
01:23:52.944 : :Chapter 14
01:37:55.995 : :Chapter 15
01:56:18.304 : :Chapter 16
01:59:38.754 : :Chapter 17





_________________
Проголосуй за трекер Открытый торрент трекер - RUS-MEDIA.ORG

Проголосуй Открытый торрент трекер - RUS-MEDIA.ORG


Книжный торрент трекер



Вернуться к началу
 Профиль Отправить личное сообщение  
 
   Похожие торренты   Автор   Торрент   Размер 
В этой теме нет новых непрочитанных сообщений. Рыба-убийца / Killer Fish [Ужасы, 1979] BDRemux 1080p, Avo

salma3

0 | 0

20.52 ГБ

В этой теме нет новых непрочитанных сообщений. Хороший динозавр / The Good Dinosaur [мультфильм, фэнтези, драма, комедия, приключения, семейный, 2015] BDRip-HEVC 1080p, Dub [Лицензия]

K15

10 | 3

6.33 ГБ

В этой теме нет новых непрочитанных сообщений. Хеллбой / Hellboy [Фэнтези, боевик, приключения, 2019] BDRip 1080p, Dub [Лицензия]

salma3

0 | 0

12.77 ГБ

В этой теме нет новых непрочитанных сообщений. Хеллбой / Hellboy [Фэнтези, боевик, приключения, 2019] BDRip 1080p, Dub [Rus Transfer] [Лицензия]

K15

0 | 0

9.6 ГБ

В этой теме нет новых непрочитанных сообщений. Звездные войны: Войны клонов / Star Wars: The Clone Wars [S06] [мультсериал, фантастика, фэнтези, боевик, драма, приключения, семейный, 2014] BDRip 1080p, Dub

K15

0 | 0

11.67 ГБ

В этой теме нет новых непрочитанных сообщений. Animal Planet: Рыба или смерть. Австралия / Fish or Die (2019) HDTVRip | P1

salma3

0 | 0

627.27 МБ

В этой теме нет новых непрочитанных сообщений. Animal Planet: Рыба или смерть. Австралия / Fish or Die (2019) HDTVRip-AVC | P1

salma3

0 | 0

1000.85 МБ


Начать новую тему Ответить на тему  [ 1 сообщение ] 




Для Мосгорсуда, Роскомнадзора и рекламодателей:: mosgorsud-torrent[собачка]yandex.ru
cron