Торрент файл
скачать торрент магнет ссылка Добавлен: 12 фев 2017, 13:28
Размер: 4.37 ГБ
Сидеров: 72
Личеров: 27
Статус: (salma3)
Автор

СообщениеДобавлено: 12 фев 2017, 13:28 

Не в сети
Супермодератор
Аватара пользователя
Дата регистрации:
15 фев 2012, 16:44
Возраст: 29
Спасибо: 7376 / 2147
Сообщения: 75718
Год выхода: 2005
Жанр: драма, биография, спорт
Режиссер: Рон Ховард

В ролях: Рассел Кроу, Рене Зеллвегер, Пол Джаматти, Крэйг Бирко, Пэдди Консидайн, Брюс МакГилл, Дэвид Хубанд, Коннор Прайс, Эриель Уоллер, Патрик Луис

О фильме: Потерпев несколько поражений кряду, подававший надежды боксер-тяжеловес Джим Брэддок вынужден бросить спорт. Во времена Великой депрессии Брэддок берется за любую работу, чтобы прокормить свою жену Мэй и детей. При этом он все еще надеется вернуться на ринг. И однажды ему предоставляется такой шанс. В последнюю минуту он заменяет другого боксера и выходит на поединок с претендентом на титул чемпиона мира.

Ко всеобщему изумлению, Брэддок побеждает уже в третьем раунде. Несмотря на то, что он весит меньше своих соперников и к тому же страдает от многочисленных травм, Джим продолжает драться и выигрывать. Апофеозом же его спортивной карьеры становится поединок с чемпионом мира Максом Баэром, убившим на ринге двух человек…



Выпущено: Universal Pictures
Продолжительность: 02:24:21
Перевод: Дублированный

Файл
Кодек: x264
Качество: BDRip
Видео: 1920x816 (2,35:1), 23.976 fps, 3888 kbps
Звук: 48 kHz, AC-3, 6 ch, 448 kbps
Субтитры: Английские

Скачать: сэмпл

Общее
Уникальный идентификатор : 242810909971716146641177254581421987417 (0xB6ABAE23CE2237C49FD711F4E51BD659)
Полное имя : Cinderella.Man.2005.BDRip.1080p.Rus.mkv
Формат : Matroska
Версия формата : Version 2
Размер файла : 4,37 Гбайт
Продолжительность : 2 ч. 24 м.
Общий поток : 4337 Кбит/сек
Дата кодирования : UTC 2011-07-05 16:03:07
Программа кодирования : mkvmerge v4.0.0 ('The Stars were mine') сборка от Jun 6 2010 16:18:42
Библиотека кодирования : libebml v1.0.0 + libmatroska v1.0.0

Видео
Идентификатор : 1
Формат : AVC
Формат/Информация : Advanced Video Codec
Профиль формата : High@L4.1
Параметр CABAC формата : Да
Параметр ReFrames формата : 5 кадров
Идентификатор кодека : V_MPEG4/ISO/AVC
Продолжительность : 2 ч. 24 м.
Битрейт : 3888 Кбит/сек
Ширина : 1920 пикселей
Высота : 816 пикселей
Соотношение сторон : 2,35:1
Частота кадров : 23,976 кадра/сек
Цветовое пространство : YUV
Субдискретизация насыщенности : 4:2:0
Битовая глубина : 8 бит
Тип развёртки : Прогрессивная
Бит/(Пиксели*Кадры) : 0.104
Размер потока : 3,83 Гбайт (88%)
Библиотека кодирования : x264 core 115 r2008 4c552d8
Настройки программы : cabac=1 / ref=5 / deblock=1:0:0 / analyse=0x3:0x133 / me=umh / subme=10 / psy=1 / psy_rd=1.00:0.10 / mixed_ref=1 / me_range=32 / chroma_me=1 / trellis=2 / 8x8dct=1 / cqm=0 / deadzone=21,11 / fast_pskip=0 / chroma_qp_offset=-3 / threads=12 / sliced_threads=0 / nr=0 / decimate=1 / interlaced=0 / bluray_compat=0 / constrained_intra=0 / bframes=5 / b_pyramid=2 / b_adapt=2 / b_bias=0 / direct=3 / weightb=1 / open_gop=0 / weightp=2 / keyint=250 / keyint_min=23 / scenecut=40 / intra_refresh=0 / rc_lookahead=60 / rc=2pass / mbtree=1 / bitrate=3888 / ratetol=1.0 / qcomp=0.60 / qpmin=0 / qpmax=69 / qpstep=4 / cplxblur=20.0 / qblur=0.5 / ip_ratio=1.40 / aq=1:1.00
Язык : English

Аудио
Идентификатор : 2
Формат : AC-3
Формат/Информация : Audio Coding 3
Расширение режима : CM (complete main)
Идентификатор кодека : A_AC3
Продолжительность : 2 ч. 24 м.
Вид битрейта : Постоянный
Битрейт : 448 Кбит/сек
Каналы : 6 каналов
Расположение каналов : Front: L C R, Side: L R, LFE
Частота : 48,0 КГц
Битовая глубина : 16 бит
Метод сжатия : С потерями
Размер потока : 463 Мбайт (10%)
Язык : Russian

Текст
Идентификатор : 3
Формат : UTF-8
Идентификатор кодека : S_TEXT/UTF8
Идентификатор кодека/Информация : UTF-8 Plain Text
Язык : English
x264 [info]: frame I:1597 Avg QP:17.46 size: 97741
x264 [info]: frame P:50685 Avg QP:20.88 size: 34720
x264 [info]: frame B:155382 Avg QP:22.16 size: 14757


_________________
Проголосуй за трекер Открытый торрент трекер - RUS-MEDIA.ORG

Проголосуй Открытый торрент трекер - RUS-MEDIA.ORG


Вернуться к началу
 Профиль Отправить личное сообщение  
 
   Похожие торренты   Автор   Торрент   Размер 
В этой теме нет новых непрочитанных сообщений. Нокдаун / Cinderella Man [Драма, биография, спорт, реальные события, 2005] BDRip 1080, Dub

salma3

21 | 13

22.06 ГБ

В этой теме нет новых непрочитанных сообщений. Самый быстрый «Индиан» / The World's Fastest Indian [драма, биография, спорт, 2005] BDRemux 1080p, Dub

salma3

0 | 0

32.98 ГБ

В этой теме нет новых непрочитанных сообщений. Защитник / Concussion [драма, биография, спорт, 2015] BDRip 1080p, Dub

salma3

6 | 7

12.9 ГБ

В этой теме нет новых непрочитанных сообщений. Все мои американцы / My All American [Драма, биография, спорт, 2015] BDRip 1080p, Dvo

salma3

130 | 37

10.36 ГБ

В этой теме нет новых непрочитанных сообщений. Гонка / Rush [Драма, биография, спорт, 2013] BDRip 1080p, Dub

salma3

0 | 0

12.59 ГБ

В этой теме нет новых непрочитанных сообщений. Дангал / Dangal [Драма, биография, спорт, 2016] BDRip 1080p, Mvo

salma3

265 | 75

10.08 ГБ

В этой теме нет новых непрочитанных сообщений. Сила воли / Race [драма, биография, спорт, 2016] BDRip 1080p, Mvo

salma3

66 | 9

10.26 ГБ


Начать новую тему Ответить на тему  [ 1 сообщение ] 




Для Мосгорсуда, Роскомнадзора и рекламодателей:: mosgorsud-torrent[собачка]yandex.ru
cron