Торрент файл
скачать торрент магнет ссылка Добавлен: 11 фев 2017, 12:59
Размер: 3.34 ГБ
Сидеров: 113
Личеров: 61
Статус: (salma3)
Автор

СообщениеДобавлено: 11 фев 2017, 12:59 

Не в сети
Супермодератор
Аватара пользователя
Дата регистрации:
15 фев 2012, 16:44
Возраст: 28
Спасибо: 7290 / 2147
Сообщения: 70815
Год выхода: 1996
Жанр: комедия
Режиссер: Джонатан Линн

В ролях: Стив Мартин, Дэн Эйкройд, Гленн Хедли, Фил Хартмэн, Дэрил Митчелл, Остин Пендлтон, Макс Каселла, Дэн Ферро, Джон Маршалл Джоунс, Брайан Лекнер, Джон Ортиц, Памела Сиголл, Митчелл Уитфилд, Дебра Джо Рапп

О фильме:
Сержант Билко — блестящий мошенник, острослов и неисправимый спорщик. Он — самый неблагонадежный человек к округе, и при этом его любят все. Ну, не все, конечно. Трудно любить человека, руку которого обнаруживаешь в своем кармане. У сержанта Билко есть один заклятый враг, один друг и одна возлюбленная. Эрнест Билко заведует гаражом на военной базе. Он обладает особым даром «ставить диагноз» сломанным машинам, не открывая крышки капота. Кроме того, Эрнест повсюду находит деньги… по запаху. Сержант Билко глубоко уважает солдат и офицеров армии США. Он считает, что эти патриоты сделали очень много для своей страны и имеют полное право поразвлечься в свободное от муштры время. Сержант Билко по собственной воле возложил на себя обязанность массовика-затейника для отставных офицеров и превратил форт Бакстер в игорный центр. Общаясь с этим необычным человеком, можно быть уверенным только в одной вещи: если сержант Билко заключил пари, без сомнений, в выигрыше останется именно он.



Страна: США
Продолжительность: 01:34:00
Перевод: Профессиональный многоголосый (СТС)

Файл
Кодек: x264
Качество: WEB-DL 1080p
Видео: MPEG-4 AVC, 4502 Кбит/с, 1920х816, 23.976 кадр/с
Аудио #1: AC3, 2 ch, 192 Кбит/с | Русский
Аудио #1: AC3, 6 ch, 384 Кбит/с | Aнглийский

Общее
Уникальный идентификатор : 222404906524063020591524562719460908223 (0xA751A07E2DBD4F78A203810C6F3D5CBF)
Полное имя : Sgt.Bilko.1996.1080p.WEB-DL.mkv
Формат : Matroska
Версия формата : Version 4 / Version 2
Размер файла : 3,34 Гбайт
Продолжительность : 1 ч. 34 м.
Режим общего битрейта : Переменный
Общий поток : 5080 Кбит/сек
Название фильма : Sgt. Bilko.1996
Дата кодирования : UTC 2017-02-11 08:04:53
Программа кодирования : mkvmerge v9.2.0 ('Photograph') 32bit
Библиотека кодирования : libebml v1.3.3 + libmatroska v1.4.4
Обложка : Yes
Attachments : cover.jpg

Видео
Идентификатор : 1
Формат : AVC
Формат/Информация : Advanced Video Codec
Профиль формата : Main@L4
Параметр CABAC формата : Да
Параметр ReFrames формата : 2 кадра
Идентификатор кодека : V_MPEG4/ISO/AVC
Продолжительность : 1 ч. 34 м.
Вид битрейта : Переменный
Битрейт : 4502 Кбит/сек
Максимальный битрейт : 768 Кбит/сек
Ширина : 1920 пикселей
Высота : 816 пикселей
Соотношение сторон : 2,35:1
Режим частоты кадров : Постоянный
Частота кадров : 23,976 (23976/1000) кадра/сек
Частота кадров в оригинале : 23,976 (24000/1001) кадра/сек
Цветовое пространство : YUV
Субдискретизация насыщенности : 4:2:0
Битовая глубина : 8 бит
Тип развёртки : Прогрессивная
Бит/(Пиксели*Кадры) : 0.120
Размер потока : 2,96 Гбайт (89%)
Заголовок : Sgt. Bilko.1996
Язык : English
Default : Да
Forced : Нет

Аудио #1
Идентификатор : 2
Формат : AC-3
Формат/Информация : Audio Coding 3
Расширение режима : CM (complete main)
Параметр Endianness формата : Big
Идентификатор кодека : A_AC3
Продолжительность : 1 ч. 34 м.
Вид битрейта : Постоянный
Битрейт : 192 Кбит/сек
Каналы : 2 канала
Расположение каналов : Front: L R
Частота : 48,0 КГц
Частота кадров : 31,250 кадров/сек (1536 spf)
Битовая глубина : 16 бит
Метод сжатия : С потерями
Размер потока : 129 Мбайт (4%)
Заголовок : MVO - СТС
Язык : Russian
Default : Да
Forced : Нет

Аудио #2
Идентификатор : 3
Формат : AC-3
Формат/Информация : Audio Coding 3
Расширение режима : CM (complete main)
Параметр Endianness формата : Big
Идентификатор кодека : A_AC3
Продолжительность : 1 ч. 34 м.
Вид битрейта : Постоянный
Битрейт : 384 Кбит/сек
Каналы : 6 каналов
Расположение каналов : Front: L C R, Side: L R, LFE
Частота : 48,0 КГц
Частота кадров : 31,250 кадров/сек (1536 spf)
Битовая глубина : 16 бит
Метод сжатия : С потерями
Размер потока : 258 Мбайт (8%)
Язык : English
Default : Нет
Forced : Нет

Меню
00:00:00.000 : en:Welcome to Fort Baxter (Main Titles)
00:11:01.000 : en:Brass
00:14:52.000 : en:The Robber Bridegroom
00:21:26.000 : en:Lieutenant Thorn
00:27:14.000 : en:The $70,000,000 Dust Cloud
00:33:04.000 : en:Major Thorn
00:39:14.000 : en:Bilko's Last Chance
00:45:14.000 : en:The Rusty Spur
00:53:15.000 : en:Like Real Soldiers
00:59:30.000 : en:Desert Maneuvers
01:06:49.000 : en:Bilko's New Girlfriend
01:12:00.000 : en:The Best Bilko Plan Even
01:19:27.000 : en:The Tank's Big Test
01:23:08.000 : en:Solid Evidence
01:25:04.000 : en:The Glee Club
01:27:19.000 : en:The Winning Hand (End Titles)


_________________
Проголосуй за трекер Открытый торрент трекер - RUS-MEDIA.ORG

Проголосуй Открытый торрент трекер - RUS-MEDIA.ORG


Вернуться к началу
 Профиль Отправить личное сообщение  
 
   Похожие торренты   Автор   Торрент   Размер 
В этой теме нет новых непрочитанных сообщений. Сержант Билко / Sgt. Bilko [комедия, 1996] BDRip 1080p, Mvo

salma3

91 | 28

8.54 ГБ

В этой теме нет новых непрочитанных сообщений. Сержант Билко / Sgt. Bilko [Комедия, 1996] WEB-DL 1080p, Mvo [Open Matte]

salma3

0 | 0

11.79 ГБ

В этой теме нет новых непрочитанных сообщений. Сержант Билко / Sgt. Bilko [Комедия, 1996] BDRip 720p, Mvo

salma3

78 | 20

6.77 ГБ

В этой теме нет новых непрочитанных сообщений. Сержант Билко / Sgt. Bilko [Комедия, 1996] WEB-DLRip-AVC, Mvo [Open Matte]

salma3

12 | 5

2.06 ГБ

В этой теме нет новых непрочитанных сообщений. Автостоянка / Carpool [комедия, 1996] WEB-DL 1080p, Dvo

salma3

0 | 1

8.45 ГБ

В этой теме нет новых непрочитанных сообщений. Убрать перископ / Down Periscope [комедия, 1996] WEB-DL 1080p, Dvo

salma3

16 | 2

8.14 ГБ

В этой теме нет новых непрочитанных сообщений. Мистер Крутой / Yat goh ho yan [боевик, комедия, криминал, 1996] WEB-DL 1080p, Mvo

salma3

6 | 2

4.36 ГБ


Начать новую тему Ответить на тему  [ 1 сообщение ] 




Для Мосгорсуда, Роскомнадзора и рекламодателей:: mosgorsud-torrent[собачка]yandex.ru
cron