Торрент файл
скачать торрент магнет ссылка Добавлен: 10 фев 2017, 17:01
Размер: 7.12 ГБ
Сидеров: 1365
Личеров: 538
Автор

СообщениеДобавлено: 10 фев 2017, 17:01 

Не в сети
Дата регистрации:
28 сен 2016, 18:10
Спасибо: 211 / 0
Сообщения: 1999
Информация о фильме
Название: По соображениям совести
Оригинальное название: Hacksaw Ridge
Страна: Австралия, США
Студия: Cross Creek Pictures, Demarest Media, IM Global
Жанр: драма, военный, история
Год выпуска: 2016
Продолжительность: 02:19:19
Перевод: Любительский (многоголосый закадровый) Студия "Paradox" & Omskbird records
Cубтитры: английские
Оригинальная аудиодорожка: английский
Режиссер: Мэл Гибсон / Mel Gibson
В ролях: Эндрю Гарфилд (Desmond Doss), Сэм Уортингтон (Captain Glover), Тереза Палмер (Dorothy Schutte), Люк Брейси (Smitty Ryker), Винс Вон (Sgt Howell), Хьюго Уивинг (Tom Doss), Рэйчел Гриффитс (Bertha Doss), Натаниэль Бузолич (Harold «Hal» Doss), Ричард Роксбург (Colonel Stelzer), Фирэсс Дирани (Vito Rinnelli), Ричард Пирос (Teach), Джейкоб Уорнер (James Pinnick)
Описание: Медик Американской армии времён Второй Мировой войны Дезмонд Досс, который служил во время битвы за Окинаву, отказывается убивать людей и становится первым идейным уклонистом в американской истории, удостоенным Медали Почёта.

Тип релиза: BDRip 720p
Контейнер: MKV
Видео: MPEG-4 AVC, 6500 Кбит/с, 1280x534, 23,976 fps
Аудио: Rus, AC3, 192 kb/s (2 ch), 48 kHz
Аудио 2: Eng, AC3, 640 kb/s (6 ch), 48 kHz
Формат субтитров: softsub (SRT)
Раздача от:
x264 [info]: frame I:1881 Avg QP:12.40 size:124966
x264 [info]: frame P:51635 Avg QP:13.88 size: 56696
x264 [info]: frame B:146908 Avg QP:14.49 size: 24551
Format : Matroska
Format version : Version 4 / Version 2
File size : 7.12 GiB
Duration : 2h 19mn
Overall bit rate : 7 313 Kbps
Movie name : По соображениям совести. (Tonik)
Encoded date : UTC 2017-02-09 11:26:50
Writing application : mkvmerge v7.1.0 ('Good Love') 64bit built on Jul 27 2014 13:06:55
Writing library : libebml v1.3.0 + libmatroska v1.4.1
_STATISTICS_WRITING_APP : mkvmerge v7.1.0 ('Good Love') 64bit built on Jul 27 2014 13:06:55
_STATISTICS_WRITING_DATE_UTC : 2017-02-09 11:26:50
_STATISTICS_TAGS : BPS DURATION NUMBER_OF_FRAMES NUMBER_OF_BYTES
DURATION : 02:19:19.264000000
NUMBER_OF_FRAMES : 261227
NUMBER_OF_BYTES : 200622336
Video
ID : 1
Format : AVC
Format/Info : Advanced Video Codec
Format profile : High@L4.1
Format settings, CABAC : Yes
Format settings, ReFrames : 12 frames
Codec ID : V_MPEG4/ISO/AVC
Bit rate : 6 500 Kbps
Width : 1 280 pixels
Height : 534 pixels
Display aspect ratio : 2.40:1
Frame rate mode : Variable
Original frame rate : 23.976 fps
Color space : YUV
Chroma subsampling : 4:2:0
Bit depth : 8 bits
Scan type : Progressive
Bits/(Pixel*Frame) : 0.397
Title : Medusa @ HDChina
Writing library : x264 core 148 r2665kMod a01e339
Encoding settings : cabac=1 / ref=12 / deblock=1:-3:-3 / analyse=0x3:0x133 / me=umh / subme=11 / psy=1 / fade_compensate=0.00 / psy_rd=1.05:0.00 / mixed_ref=1 / me_range=32 / chroma_me=1 / trellis=2 / 8x8dct=1 / cqm=0 / deadzone=21,11 / fast_pskip=0 / chroma_qp_offset=-2 / threads=17 / lookahead_threads=2 / sliced_threads=0 / nr=0 / decimate=0 / interlaced=0 / bluray_compat=0 / constrained_intra=0 / fgo=0 / bframes=8 / b_pyramid=2 / b_adapt=2 / b_bias=0 / direct=3 / weightb=1 / open_gop=0 / weightp=2 / keyint=240 / keyint_min=24 / scenecut=40 / intra_refresh=0 / rc=2pass / mbtree=0 / bitrate=6500 / ratetol=1.0 / qcomp=0.70 / qpmin=0 / qpmax=69 / qpstep=4 / cplxblur=20.0 / qblur=0.5 / ip_ratio=1.20 / pb_ratio=1.20 / aq=3:0.85
Language : English
Default : Yes
Forced : No
_STATISTICS_WRITING_APP : mkvmerge v7.1.0 ('Good Love') 64bit built on Jul 27 2014 13:06:55
_STATISTICS_WRITING_DATE_UTC : 2017-02-09 11:26:50
_STATISTICS_TAGS : BPS DURATION NUMBER_OF_FRAMES NUMBER_OF_BYTES
DURATION : 02:19:19.351000000
NUMBER_OF_FRAMES : 200424
NUMBER_OF_BYTES : 6769303844
Audio #1
ID : 2
Format : AC-3
Format/Info : Audio Coding 3
Mode extension : CM (complete main)
Format settings, Endianness : Big
Codec ID : A_AC3
Duration : 2h 19mn
Bit rate mode : Constant
Bit rate : 192 Kbps
Channel(s) : 2 channels
Channel positions : Front: L R
Sampling rate : 48.0 KHz
Bit depth : 16 bits
Compression mode : Lossy
Stream size : 191 MiB (3%)
Title : Paradox
Language : Russian
Default : Yes
Forced : No
Audio #2
ID : 3
Format : AC-3
Format/Info : Audio Coding 3
Mode extension : CM (complete main)
Format settings, Endianness : Big
Codec ID : A_AC3
Duration : 2h 19mn
Bit rate mode : Constant
Bit rate : 640 Kbps
Channel(s) : 6 channels
Channel positions : Front: L C R, Side: L R, LFE
Sampling rate : 48.0 KHz
Bit depth : 16 bits
Compression mode : Lossy
Stream size : 638 MiB (9%)
Language : English
Default : No
Forced : No
Text #1
ID : 4
Format : UTF-8
Codec ID : S_TEXT/UTF8
Codec ID/Info : UTF-8 Plain Text
Language : English
Default : No
Forced : No
Text #2
ID : 5
Format : UTF-8
Codec ID : S_TEXT/UTF8
Codec ID/Info : UTF-8 Plain Text
Title : SDH
Language : English
Default : No
Forced : No
Menu
00:00:00.000 : en:00:00:00.000
00:09:18.766 : en:00:09:18.766
00:18:41.996 : en:00:18:41.996
00:26:34.510 : en:00:26:34.510
00:33:00.562 : en:00:33:00.562
00:40:04.152 : en:00:40:04.152
00:50:07.212 : en:00:50:07.212
00:57:01.543 : en:00:57:01.543
01:04:21.649 : en:01:04:21.649
01:17:50.207 : en:01:17:50.207
01:23:58.700 : en:01:23:58.700
01:31:21.726 : en:01:31:21.726
01:39:02.812 : en:01:39:02.812
01:46:07.569 : en:01:46:07.569
01:59:48.306 : en:01:59:48.306
02:07:13.292 : en:02:07:13.292






реклама партнёра


Вернуться к началу
 Профиль Отправить личное сообщение  
 
   Похожие торренты   Автор   Торрент   Размер 
В этой теме нет новых непрочитанных сообщений. По соображениям совести / Hacksaw Ridge (драма, военный, история, 2016) BDRip 720p от Scarabey | A

marya111

676 | 124

3.87 ГБ

В этой теме нет новых непрочитанных сообщений. По соображениям совести / Hacksaw Ridge [драма, военный, история, 2016] BDRip, Mvo

salma3

840 | 287

2.18 ГБ

В этой теме нет новых непрочитанных сообщений. По соображениям совести / Hacksaw Ridge [драма, военный, история, 2016] BDRip, Dub+Sub [iTunes]

salma3

2478 | 883

1.46 ГБ

В этой теме нет новых непрочитанных сообщений. По соображениям совести / Hacksaw Ridge [драма, военный, история, 2016] BDRip, Dub [iTunes]

salma3

103 | 43

2.12 ГБ

В этой теме нет новых непрочитанных сообщений. По соображениям совести / Hacksaw Ridge [драма, военный, история, 2016] BDRip-AVC, Dub+Sub [iTunes]

salma3

98 | 51

2.23 ГБ

В этой теме нет новых непрочитанных сообщений. По соображениям совести / Hacksaw Ridge (драма, военный, история, 2016) BDRip 1080p | L, A

marya111

827 | 385

9 ГБ

В этой теме нет новых непрочитанных сообщений. По соображениям совести / Hacksaw Ridge [драма, военный, история, 2016] BDRip-AVC, Dub+Sub [iTunes]

salma3

292 | 96

1.51 ГБ


Начать новую тему Ответить на тему  [ 1 сообщение ] 




Для Мосгорсуда, Роскомнадзора и рекламодателей:: mosgorsud-torrent[собачка]yandex.ru