Торрент файл
скачать торрент магнет ссылка Добавлен: 10 фев 2017, 16:46
Размер: 7.85 ГБ
Сидеров: 14
Личеров: 29
Статус: (salma3)
Автор

СообщениеДобавлено: 10 фев 2017, 16:46 

Не в сети
Супермодератор
Аватара пользователя
Дата регистрации:
15 фев 2012, 16:44
Возраст: 29
Спасибо: 7377 / 2147
Сообщения: 75805
Год выхода: 2008
Страна: Германия
Продолжительность: 01:31:35
Жанр: ужасы, фэнтези, триллер
Режиссер: Михаэль Рёш, Питер Ширер

В ролях: Рик Юн, Рэйчел Спектер, Лэнс Хенриксен, Билл Моусли, Ральф Мёллер, Дэнни Трехо, Зак Уорд, Наташа Мальте, Джейсон Коннери, Майкл Паре, ...

Перевод:
- Профессиональный (многоголосный, закадровый) R5 «Lizard Cinema Trade»
- Любительский (двухголосый, закадровый) Интерфильм
- Субтитры

О фильме: Эдвард Карнби, исследователь паранормальных явлений, бросает вызов темным силам. Жрица тьмы вырвалась из своей адской темницы! Появившись вновь среди людей, она начинает искать невинные души, чтобы принести их в жертву своему темному Повелителю. Собрав команду, Карнби отправляется на поиски священного артефакта, способного уничтожить демона…



Кодек: x264
Качество: BDRip 1080p
Видео: 1916x816, 10000 kbps, 23,976 fps
Аудио #1: AC-3, 6 ch, 384 kbps (Rus) - MVO R5 «Lizard Cinema Trade»
Аудио #2: AC-3, 6 ch, 384 kbps (Rus) - DVOL Интерфильм
Аудио #3: DTS, 6 ch, 1509 kbps (Eng)
Субтитры: Русские, Английские

За исходник спасибо - Arifis
x264 [info]: frame I:665 Avg QP:17.12 size:146311
x264 [info]: frame P:32345 Avg QP:20.15 size: 78764
x264 [info]: frame B:98762 Avg QP:21.89 size: 42668
x264 [info]: consecutive B-frames: 5.0% 4.9% 4.4% 33.7% 5.1% 24.6% 2.6% 12.5% 1.6% 1.0% 0.9% 3.0% 0.8%

Общее
Уникальный идентификатор : 174700376551299511798177097597898892298 (0x836E119304F485C9A0A66837436EA40A)
Полное имя : Один в темноте 2 (Alone in the Dark II) 2008 BDRip 1080p.mkv
Формат : Matroska
Версия формата : Version 2
Размер файла : 7,85 Гбайт
Продолжительность : 1 ч. 31 м.
Общий поток : 12,3 Мбит/сек
Дата кодирования : UTC 2017-02-08 17:35:23
Программа кодирования : mkvmerge v4.0.0 ('The Stars were mine') сборка от Jun 6 2010 16:18:42
Библиотека кодирования : libebml v1.0.0 + libmatroska v1.0.0

Видео
Идентификатор : 1
Формат : AVC
Формат/Информация : Advanced Video Codec
Профиль формата : High@L4.1
Параметр CABAC формата : Да
Параметр ReFrames формата : 5 кадров
Идентификатор кодека : V_MPEG4/ISO/AVC
Продолжительность : 1 ч. 31 м.
Битрейт : 10000 Кбит/сек
Ширина : 1916 пикселей
Высота : 816 пикселей
Соотношение сторон : 2,35:1
Режим частоты кадров : Постоянный
Частота кадров : 23,976 (24000/1001) кадра/сек
Цветовое пространство : YUV
Субдискретизация насыщенности : 4:2:0
Битовая глубина : 8 бит
Тип развёртки : Прогрессивная
Бит/(Пиксели*Кадры) : 0.267
Размер потока : 6,23 Гбайт (79%)
Библиотека кодирования : x264 core 146 r2538 121396c
Настройки программы : cabac=1 / ref=5 / deblock=1:1:1 / analyse=0x3:0x133 / me=umh / subme=11 / psy=1 / psy_rd=1.00:0.00 / mixed_ref=1 / me_range=32 / chroma_me=1 / trellis=2 / 8x8dct=1 / cqm=0 / deadzone=21,11 / fast_pskip=0 / chroma_qp_offset=-2 / threads=12 / lookahead_threads=2 / sliced_threads=0 / nr=0 / decimate=0 / interlaced=0 / bluray_compat=0 / constrained_intra=0 / bframes=12 / b_pyramid=2 / b_adapt=2 / b_bias=0 / direct=3 / weightb=1 / open_gop=0 / weightp=2 / keyint=240 / keyint_min=23 / scenecut=40 / intra_refresh=0 / rc=2pass / mbtree=0 / bitrate=10000 / ratetol=1.0 / qcomp=0.60 / qpmin=0 / qpmax=69 / qpstep=4 / cplxblur=20.0 / qblur=0.5 / ip_ratio=1.40 / pb_ratio=1.30 / aq=3:0.80
Язык : English
Default : Нет
Forced : Нет

Аудио #1
Идентификатор : 2
Формат : AC-3
Формат/Информация : Audio Coding 3
Расширение режима : CM (complete main)
Параметр Endianness формата : Big
Идентификатор кодека : A_AC3
Продолжительность : 1 ч. 31 м.
Вид битрейта : Постоянный
Битрейт : 384 Кбит/сек
Каналы : 6 каналов
Расположение каналов : Front: L C R, Side: L R, LFE
Частота : 48,0 КГц
Частота кадров : 31,250 кадров/сек (1536 spf)
Метод сжатия : С потерями
Размер потока : 252 Мбайт (3%)
Заголовок : MVO R5 «Lizard Cinema Trade»
Язык : Russian
Default : Нет
Forced : Нет

Аудио #2
Идентификатор : 3
Формат : AC-3
Формат/Информация : Audio Coding 3
Расширение режима : CM (complete main)
Параметр Endianness формата : Big
Идентификатор кодека : A_AC3
Продолжительность : 1 ч. 31 м.
Вид битрейта : Постоянный
Битрейт : 384 Кбит/сек
Каналы : 6 каналов
Расположение каналов : Front: L C R, Side: L R, LFE
Частота : 48,0 КГц
Частота кадров : 31,250 кадров/сек (1536 spf)
Метод сжатия : С потерями
Размер потока : 252 Мбайт (3%)
Заголовок : DVOL Интерфильм
Язык : Russian
Default : Нет
Forced : Нет

Аудио #3
Идентификатор : 4
Формат : DTS
Формат/Информация : Digital Theater Systems
Режим : 16
Параметр Endianness формата : Big
Идентификатор кодека : A_DTS
Продолжительность : 1 ч. 31 м.
Вид битрейта : Постоянный
Битрейт : 1509 Кбит/сек
Каналы : 6 каналов
Расположение каналов : Front: L C R, Side: L R, LFE
Частота : 48,0 КГц
Частота кадров : 93,750 кадра/сек (512 spf)
Битовая глубина : 16 бит
Метод сжатия : С потерями
Размер потока : 989 Мбайт (12%)
Язык : English
Default : Нет
Forced : Нет

Текст #1
Идентификатор : 5
Формат : UTF-8
Идентификатор кодека : S_TEXT/UTF8
Идентификатор кодека/Информация : UTF-8 Plain Text
Язык : Russian
Default : Нет
Forced : Нет

Текст #2
Идентификатор : 6
Формат : UTF-8
Идентификатор кодека : S_TEXT/UTF8
Идентификатор кодека/Информация : UTF-8 Plain Text
Язык : English
Default : Нет
Forced : Нет



_________________
Проголосуй за трекер Открытый торрент трекер - RUS-MEDIA.ORG

Проголосуй Открытый торрент трекер - RUS-MEDIA.ORG


Вернуться к началу
 Профиль Отправить личное сообщение  
 
   Похожие торренты   Автор   Торрент   Размер 
В этой теме нет новых непрочитанных сообщений. Один пропущенный звонок / One Missed Call [ужасы, триллер, детектив, 2008] BDRip 720p, Dub

salma3

22 | 2

2.79 ГБ

В этой теме нет новых непрочитанных сообщений. Дальше по коридору / Down a Dark Hall [ужасы, фэнтези, триллер, 2018] WEB-DL 1080p, Dvo

salma3

0 | 0

3.63 ГБ

В этой теме нет новых непрочитанных сообщений. Дальше по коридору / Down a Dark Hall [Ужасы, фэнтези, триллер, 2018] WEB-DL 1080p, Mvo

salma3

0 | 0

3.51 ГБ

В этой теме нет новых непрочитанных сообщений. Тёмная башня / The Dark Tower [Ужасы, фантастика, фэнтези, 2017] BDRip 1080p, Dub [Лицензия]

salma3

0 | 0

7.46 ГБ

В этой теме нет новых непрочитанных сообщений. В темноте / In the Dark [S01] [криминал , 2017] HDTVRip 720р, Dvo [RusFilm]

salma3

65 | 28

2.89 ГБ

В этой теме нет новых непрочитанных сообщений. Тёмная башня / The Dark Tower [Ужасы, фантастика, фэнтези, 2017] BDRip, Dub [Лицензия]

salma3

111 | 33

745.3 МБ

В этой теме нет новых непрочитанных сообщений. Тёмная башня / The Dark Tower [Ужасы, фантастика, фэнтези, 2017] BDRip-AVC, Dub [Лицензия]

salma3

159 | 19

1.89 ГБ


Начать новую тему Ответить на тему  [ 1 сообщение ] 




Для Мосгорсуда, Роскомнадзора и рекламодателей:: mosgorsud-torrent[собачка]yandex.ru
cron