Торрент файл
скачать торрент магнет ссылка Добавлен: 09 фев 2017, 14:21
Размер: 6.23 ГБ
Сидеров: 51
Личеров: 51
Статус: (salma3)
Автор

СообщениеДобавлено: 09 фев 2017, 14:21 

Не в сети
Супермодератор
Аватара пользователя
Дата регистрации:
15 фев 2012, 16:44
Возраст: 30
Спасибо: 8112 / 2147
Сообщения: 93395
Год выхода: 1977
Жанр: фэнтези, боевик, драма, приключения, семейный
Режиссер: Сэм Уонамейкер
В ролях: Патрик Уэйн, Тэрин Пауэр, Маргарет Уайтинг, Джейн Сеймур, Патрик Тротон, Курт Кристиан, Надим Савалха, Дэмиен Томас, Бруно Барнаби, Бернард Кэй

О фильме:
Синдбад держит путь в землю Чарок для того, чтобы просить руки принцессы Фары у ее брата принца Кассима. Однако, приплыв туда, он узнает, что волшебница Зенобия наложила на Кассима проклятие, превратив его в бабуина.

Королева Зенобия сделала это, для того, чтобы калифом смог стать ее сын принц Рафи. Синдбад решает восстановить справедливость и вступает в схватку с волшебницей, то и дело принимающей облик дикой тигрицы.



Страна: Великобритания, США
Студия: Andor Films, Columbia Pictures Corporation
Продолжительность: 01:52:59
Перевод: Профессиональный (многоголосый, закадровый) Позитив-Мультимедиа + Авторский (одноголосый, закадровый) Ю.Живов + Авторский (одноголосый, закадровый) А.Михалёв + Авторский (одноголосый, закадровый) Ю.Товбин

Файл
Формат: Matroska
Качество: BDRip 720p
Видео: 1280x692 at 23.976 fps, x264@L4.1, ~6006 kbps avg
Аудио#1: Russian: 48 kHz, AC3 Dolby Digital, 3/2 (L,C,R,l,r) + LFE ch, ~448 kbps avg |Многоголосый закадровый, Позитив-Мультимедиа|
Аудио#2: Russian: 48 kHz, AC3 Dolby Digital, 3/2 (L,C,R,l,r) + LFE ch, ~448 kbps avg |Авторский, Ю.Живов|
Аудио#3: Russian: 48 kHz, AC3 Dolby Digital, 2/0 (L,R) ch, ~192 kbps avg |Авторский, А.Михалёв|
Аудио#4: Russian: 48 kHz, AC3 Dolby Digital, 2/0 (L,R) ch, ~192 kbps avg kbps avg |Авторский, Ю.Товбин|
Аудио#5: English: 48 kHz, AC3 Dolby Digital, 3/2 (L,C,R,l,r) + LFE ch, ~448 kbps avg
Субтитры: English

***Сохранены оригинальные главы как на Blu-ray.
***Релиз - msltel.

Общее
Уникальный идентификатор : 238009610724973632455556959236264764774 (0xB30EFBCF7C1F5AC6B868FD1922AB2566)
Полное имя : Синдбад и Глаз Тигра.1977.BDRip.720p by msltel.mkv
Формат : Matroska
Версия формата : Version 4 / Version 2
Размер файла : 6,23 Гбайт
Продолжительность : 1 ч. 52 м.
Общий поток : 7891 Кбит/сек
Название фильма : Rip by msltel
Дата кодирования : UTC 2017-02-09 05:42:43
Программа кодирования : mkvmerge v8.2.0 ('World of Adventure') 64bit
Библиотека кодирования : libebml v1.3.1 + libmatroska v1.4.2

Видео
Идентификатор : 1
Формат : AVC
Формат/Информация : Advanced Video Codec
Профиль формата : High@L4.1
Параметр CABAC формата : Да
Параметр ReFrames формата : 9 кадров
Идентификатор кодека : V_MPEG4/ISO/AVC
Продолжительность : 1 ч. 52 м.
Битрейт : 6006 Кбит/сек
Ширина : 1280 пикселей
Высота : 692 пикселя
Соотношение сторон : 1,85:1
Режим частоты кадров : Постоянный
Частота кадров : 23,976 кадра/сек
Цветовое пространство : YUV
Субдискретизация насыщенности : 4:2:0
Битовая глубина : 8 бит
Тип развёртки : Прогрессивная
Бит/(Пиксели*Кадры) : 0.283
Размер потока : 4,74 Гбайт (76%)
Библиотека кодирования : x264 core 146 r2538 121396c
Настройки программы : cabac=1 / ref=9 / deblock=1:-3:-3 / analyse=0x3:0x113 / me=umh / subme=11 / psy=1 / psy_rd=1.00:0.15 / mixed_ref=1 / me_range=32 / chroma_me=1 / trellis=2 / 8x8dct=1 / cqm=0 / deadzone=21,11 / fast_pskip=0 / chroma_qp_offset=-3 / threads=6 / lookahead_threads=1 / sliced_threads=0 / nr=0 / decimate=1 / interlaced=0 / bluray_compat=0 / constrained_intra=0 / bframes=10 / b_pyramid=2 / b_adapt=2 / b_bias=0 / direct=1 / weightb=1 / open_gop=0 / weightp=2 / keyint=230 / keyint_min=23 / scenecut=40 / intra_refresh=0 / rc_lookahead=40 / rc=crf / mbtree=0 / crf=19.4 / qcomp=0.60 / qpmin=0 / qpmax=69 / qpstep=4 / vbv_maxrate=62500 / vbv_bufsize=78125 / crf_max=0.0 / nal_hrd=none / filler=0 / ip_ratio=1.40 / pb_ratio=1.30 / aq=1:1.00
Язык : English
Default : Да
Forced : Нет

Аудио #1
Идентификатор : 2
Формат : AC-3
Формат/Информация : Audio Coding 3
Расширение режима : CM (complete main)
Параметр Endianness формата : Big
Идентификатор кодека : A_AC3
Продолжительность : 1 ч. 52 м.
Вид битрейта : Постоянный
Битрейт : 448 Кбит/сек
Каналы : 6 каналов
Расположение каналов : Front: L C R, Side: L R, LFE
Частота : 48,0 КГц
Битовая глубина : 16 бит
Метод сжатия : С потерями
Размер потока : 362 Мбайт (6%)
Заголовок : MVO (Позитив-Мультимедиа)
Язык : Russian
Default : Да
Forced : Нет

Аудио #2
Идентификатор : 3
Формат : AC-3
Формат/Информация : Audio Coding 3
Расширение режима : CM (complete main)
Параметр Endianness формата : Big
Идентификатор кодека : A_AC3
Продолжительность : 1 ч. 52 м.
Вид битрейта : Постоянный
Битрейт : 448 Кбит/сек
Каналы : 6 каналов
Расположение каналов : Front: L C R, Side: L R, LFE
Частота : 48,0 КГц
Битовая глубина : 16 бит
Метод сжатия : С потерями
Размер потока : 362 Мбайт (6%)
Заголовок : AVO (Юрий Живов)
Язык : Russian
Default : Нет
Forced : Нет

Аудио #3
Идентификатор : 4
Формат : AC-3
Формат/Информация : Audio Coding 3
Расширение режима : CM (complete main)
Параметр Endianness формата : Big
Идентификатор кодека : A_AC3
Продолжительность : 1 ч. 52 м.
Вид битрейта : Постоянный
Битрейт : 192 Кбит/сек
Каналы : 2 канала
Расположение каналов : Front: L R
Частота : 48,0 КГц
Битовая глубина : 16 бит
Метод сжатия : С потерями
Размер потока : 155 Мбайт (2%)
Заголовок : AVO (Алексей Михалёв)
Язык : Russian
Default : Нет
Forced : Нет

Аудио #4
Идентификатор : 5
Формат : AC-3
Формат/Информация : Audio Coding 3
Расширение режима : CM (complete main)
Параметр Endianness формата : Big
Идентификатор кодека : A_AC3
Продолжительность : 1 ч. 52 м.
Вид битрейта : Постоянный
Битрейт : 192 Кбит/сек
Каналы : 2 канала
Расположение каналов : Front: L R
Частота : 48,0 КГц
Битовая глубина : 16 бит
Метод сжатия : С потерями
Размер потока : 155 Мбайт (2%)
Заголовок : AVO (Юрий Толбин)
Язык : Russian
Default : Нет
Forced : Нет

Аудио #5
Идентификатор : 6
Формат : AC-3
Формат/Информация : Audio Coding 3
Расширение режима : CM (complete main)
Параметр Endianness формата : Big
Идентификатор кодека : A_AC3
Продолжительность : 1 ч. 52 м.
Вид битрейта : Постоянный
Битрейт : 448 Кбит/сек
Каналы : 6 каналов
Расположение каналов : Front: L C R, Side: L R, LFE
Частота : 48,0 КГц
Битовая глубина : 16 бит
Метод сжатия : С потерями
Размер потока : 362 Мбайт (6%)
Заголовок : original
Язык : English
Default : Нет
Forced : Нет

Текст
Идентификатор : 7
Формат : UTF-8
Идентификатор кодека : S_TEXT/UTF8
Идентификатор кодека/Информация : UTF-8 Plain Text
Заголовок : английские (для слабослышащих)
Язык : English
Default : Нет
Forced : Нет

Меню
00:00:00.000 : :Chapter 01
00:05:49.182 : :Chapter 02
00:13:30.307 : :Chapter 03
00:23:15.558 : :Chapter 04
00:31:28.634 : :Chapter 05
00:40:57.413 : :Chapter 06
00:51:02.224 : :Chapter 07
01:02:41.296 : :Chapter 08
01:15:43.662 : :Chapter 09
01:27:07.305 : :Chapter 10
01:37:20.707 : :Chapter 11
01:51:59.671 : :Chapter 12
01:52:59.564 : :Chapter 13


_________________
Проголосуй за трекер Открытый торрент трекер - RUS-MEDIA.ORG

Проголосуй Открытый торрент трекер - RUS-MEDIA.ORG


Книжный торрент трекер



Вернуться к началу
 Профиль Отправить личное сообщение  
 
   Похожие торренты   Автор   Торрент   Размер 
В этой теме нет новых непрочитанных сообщений. Синдбад и Глаз Тигра / Sinbad and the Eye of the Tiger [фэнтези, боевик, приключения, 1977] BDRip, Mvo

salma3

59 | 17

1.46 ГБ

В этой теме нет новых непрочитанных сообщений. Глаз - убийца / The Killer Eye [ужасы, фантастика, 1999] DVDRip-AVC, Avo

salma3

0 | 0

1.48 ГБ

В этой теме нет новых непрочитанных сообщений. Синдбад: Легенда семи морей / Sinbad of the Seven Seas [фэнтези, приключения, 1989] BDRip, Mvo

salma3

52 | 18

1.46 ГБ

В этой теме нет новых непрочитанных сообщений. Синдбад: Легенда семи морей / Sinbad of the Seven Seas [фэнтези, приключения, 1989] HDRip-AVC, Mvo

salma3

1 | 0

1.46 ГБ

В этой теме нет новых непрочитанных сообщений. Синдбад и война с фуриями / Sinbad and the War of the Furies [боевик, приключения, 2016] HDRip, Mvo

salma3

1227 | 473

1.37 ГБ

В этой теме нет новых непрочитанных сообщений. Белый тигр / White Tiger [боевик, триллер, драма, криминал, 1996] DVD5, Avo [Custom]

K15

0 | 4

4.31 ГБ

В этой теме нет новых непрочитанных сообщений. Мумия возвращается / The Mummy Returns [фэнтези, боевик, триллер, приключения, 2001] UHD BDRip 720p, Mvo

K15

0 | 0

6.41 ГБ


Начать новую тему Ответить на тему  [ 1 сообщение ] 




Для Мосгорсуда, Роскомнадзора и рекламодателей:: mosgorsud-torrent[собачка]yandex.ru
cron