Торрент файл
скачать торрент магнет ссылка Добавлен: 08 фев 2017, 13:44
Размер: 14.64 ГБ
Сидеров: 36
Личеров: 15
Статус: (salma3)
Автор

СообщениеДобавлено: 08 фев 2017, 13:44 

Не в сети
Супермодератор
Аватара пользователя
Дата регистрации:
15 фев 2012, 16:44
Возраст: 28
Спасибо: 7163 / 2147
Сообщения: 61708
Год выхода: 1972
Жанр: Боевик, триллер, драма, криминал
Режиссер: Ричард Флайшер

В ролях: Джордж К. Скотт, Стейси Кич, Джейн Александер ст., Скотт Уилсон, Розалинд Кэш, Эрик Эстрада, Клифтон Джеймс, Ричард Е. Кальк, Джеймс Сиккинг, Беверли Хоуп Эткинсон, Энн Рэмси, Киттен Нативидад, Девейн Джесси, Хилли Хикс, Пепе Серна, Адриана Шоу, Майкл Делано, Рид Морган, Беа Томпкинс, Генри Геллис

О фильме:
Новичок Рой Фехлер приходит в полицию и принимается за работу с рвением, приводящим к развалу собственной семьи. В напарники ему достается опытный и принципиальный коп — настоящий матерый волк. Каждый раз, выезжая на дежурство, они балансируют на грани жизни и смерти, строго придерживаясь в своей деятельности главного лозунга: «Защищать и служить».



Страна: США
Студия: Chartoff-Winkler Productions
Продолжительность: 01:43:11
Перевод: Дублированный (Мосфильм + вставки двухголосого) + Профессиональный (двухголосый, закадровый)[НТВ]

Файл
Качество: BDRip 1080p
Формат: MKV
Кодек: MPEG-4 AVC
Видео: 1920x818 (2,35:1), 23,976 fps, MPEG-4 AVC ~ 19589 Kbps avg, 0,520 bit/pixel
Аудио: АС3, 48 kHz, 2 ch, ~192.00 kbps avg | русский | Профессиональный (полное дублирование)[Советский дубляж]
Аудио: АС3, 48 kHz, 2 ch, ~192.00 kbps avg | русский | Профессиональный (двухголосый, закадровый)[НТВ]
Аудио: FLAC, 48 kHz, 1 ch, ~279.00 kbps avg | английский | Оригинал
Субтитры: Английские
Семпл

Общее
Уникальный идентификатор : 204135264837353127157503626789232425206 (0x9993059CE9FC4A828C8576A22245B8F6)
Полное имя : The.New.Centurions.1972.1080p.BluRay. x264-VietHD.mkv
Формат : Matroska
Версия формата : Version 4 / Version 2
Размер файла : 14,6 Гбайт
Продолжительность : 1 ч. 43 м.
Режим общего битрейта : Переменный
Общий поток : 20,3 Мбит/сек
Дата кодирования : UTC 2017-02-07 20:23:19
Программа кодирования : mkvmerge v9.7.1 ('Pandemonium') 64bit
Библиотека кодирования : libebml v1.3.4 + libmatroska v1.4.5
DURATION : 01:43:09.024000000
NUMBER_OF_FRAMES : 193407
NUMBER_OF_BYTES : 148536576
_STATISTICS_WRITING_APP : mkvmerge v9.7.1 ('Pandemonium') 64bit
_STATISTICS_WRITING_DATE_UTC : 2017-02-07 20:23:19
_STATISTICS_TAGS : BPS DURATION NUMBER_OF_FRAMES NUMBER_OF_BYTES
Видео
Идентификатор : 1
Формат : AVC
Формат/Информация : Advanced Video Codec
Профиль формата : High@L4.1
Параметр CABAC формата : Да
Параметр ReFrames формата : 5 кадров
Идентификатор кодека : V_MPEG4/ISO/AVC
Продолжительность : 1 ч. 43 м.
Ширина : 1920 пикселей
Высота : 818 пикселей
Соотношение сторон : 2,35:1
Режим частоты кадров : Постоянный
Частота кадров : 23,976 кадра/сек
Цветовое пространство : YUV
Субдискретизация насыщенности : 4:2:0
Битовая глубина : 8 бит
Тип развёртки : Прогрессивная
Заголовок : The.New.Centurions.1972.1080p.BluRay. x264-VietHD
Библиотека кодирования : x264 core 148 r2721kMod 72d53ab
Настройки программы : cabac=1 / ref=5 / deblock=1:-3:-3 / analyse=0x3:0x133 / me=umh / subme=10 / psy=1 / fade_compensate=0.00 / psy_rd=0.90:0.00 / mixed_ref=1 / me_range=24 / chroma_me=1 / trellis=2 / 8x8dct=1 / cqm=0 / deadzone=21,11 / fast_pskip=0 / chroma_qp_offset=-2 / threads=56 / lookahead_threads=6 / sliced_threads=0 / nr=0 / decimate=0 / interlaced=0 / bluray_compat=0 / constrained_intra=0 / fgo=0 / bframes=8 / b_pyramid=2 / b_adapt=2 / b_bias=0 / direct=3 / weightb=1 / open_gop=0 / weightp=2 / keyint=250 / keyint_min=23 / scenecut=40 / intra_refresh=0 / rc_lookahead=60 / rc=crf / mbtree=0 / crf=17.8000 / qcomp=0.60 / qpmin=0 / qpmax=69 / qpstep=4 / vbv_maxrate=62500 / vbv_bufsize=78125 / crf_max=0.0 / nal_hrd=none / filler=0 / ip_ratio=1.30 / pb_ratio=1.25 / aq=3:0.85
Язык : English
Default : Да
Forced : Нет
DURATION : 01:43:10.810000000
NUMBER_OF_FRAMES : 148431
NUMBER_OF_BYTES : 15204505748
_STATISTICS_WRITING_APP : mkvmerge v9.7.1 ('Pandemonium') 64bit
_STATISTICS_WRITING_DATE_UTC : 2017-02-07 20:23:19
_STATISTICS_TAGS : BPS DURATION NUMBER_OF_FRAMES NUMBER_OF_BYTES
Аудио #1
Идентификатор : 2
Формат : AC-3
Формат/Информация : Audio Coding 3
Расширение режима : CM (complete main)
Параметр Endianness формата : Big
Идентификатор кодека : A_AC3
Продолжительность : 1 ч. 43 м.
Вид битрейта : Постоянный
Битрейт : 192 Кбит/сек
Каналы : 2 канала
Расположение каналов : Front: L R
Частота : 48,0 КГц
Метод сжатия : С потерями
Размер потока : 142 Мбайт (1%)
Заголовок : DUB
Язык : Russian
Default : Да
Forced : Нет
Аудио #2
Идентификатор : 3
Формат : AC-3
Формат/Информация : Audio Coding 3
Расширение режима : CM (complete main)
Параметр Endianness формата : Big
Идентификатор кодека : A_AC3
Продолжительность : 1 ч. 43 м.
Вид битрейта : Постоянный
Битрейт : 192 Кбит/сек
Каналы : 2 канала
Расположение каналов : Front: L R
Частота : 48,0 КГц
Метод сжатия : С потерями
Размер потока : 142 Мбайт (1%)
Заголовок : НТВ
Язык : Russian
Default : Нет
Forced : Нет
Аудио #3
Идентификатор : 4
Формат : FLAC
Формат/Информация : Free Lossless Audio Codec
Идентификатор кодека : A_FLAC
Продолжительность : 1 ч. 43 м.
Вид битрейта : Переменный
Каналы : 1 канал
Частота : 48,0 КГц
Битовая глубина : 16 бит
Библиотека кодирования : libFLAC 1.3.1 (UTC 2014-11-25)
Язык : English
Default : Нет
Forced : Нет
Текст #1
Идентификатор : 5
Формат : UTF-8
Идентификатор кодека : S_TEXT/UTF8
Идентификатор кодека/Информация : UTF-8 Plain Text
Заголовок : SDH
Язык : English
Default : Нет
Forced : Нет
Текст #2
Идентификатор : 6
Формат : UTF-8
Идентификатор кодека : S_TEXT/UTF8
Идентификатор кодека/Информация : UTF-8 Plain Text
Язык : English
Default : Нет
Forced : Нет
Меню
00:00:00.000 : en:CHAPTER 01
00:08:37.809 : en:CHAPTER 02
00:16:22.315 : en:CHAPTER 03
00:24:27.341 : en:CHAPTER 04
00:34:51.548 : en:CHAPTER 05
00:42:00.435 : en:CHAPTER 06
00:50:42.414 : en:CHAPTER 07
00:59:56.343 : en:CHAPTER 08
01:08:17.093 : en:CHAPTER 09
01:17:42.366 : en:CHAPTER 10
01:27:33.874 : en:CHAPTER 11
01:38:35.660 : en:CHAPTER 12




_________________
Проголосуй за трекер Открытый торрент трекер - RUS-MEDIA.ORG

Проголосуй Открытый торрент трекер - RUS-MEDIA.ORG


Вернуться к началу
 Профиль Отправить личное сообщение  
 
   Похожие торренты   Автор   Торрент   Размер 
В этой теме нет новых непрочитанных сообщений. Новые центурионы / The New Centurions [боевик, триллер, драма, криминал, 1972] HDRip, Dub+Dvo

salma3

84 | 20

1.45 ГБ

В этой теме нет новых непрочитанных сообщений. Новые центурионы / The New Centurions [боевик, триллер, драма, 1972] BDRip 720p, Dub

salma3

0 | 0

3.97 ГБ

В этой теме нет новых непрочитанных сообщений. Питбуль. Новые порядки / Pitbull. Nowe porzadki [боевик, триллер, драма, криминал, 2016] BDRip 720p, Avo

salma3

255 | 20

6.74 ГБ

В этой теме нет новых непрочитанных сообщений. Крестный отец 1,2,3 / The Godfather: Part I, II, III [Боевик, триллер, драма, криминал, 1972, 1974, 1990] BDRip, Dub+Sub [Нева Фильм]

salma3

23 | 7

6.56 ГБ

В этой теме нет новых непрочитанных сообщений. Побег / The Getaway [Боевик, триллер, криминал, 1972] Blu-Ray 1080p, Mvo

salma3

3 | 5

20.53 ГБ

В этой теме нет новых непрочитанных сообщений. Побег / The Getaway [боевик, триллер, криминал, 1972] BDRip 720p, Mvo

salma3

19 | 9

7.95 ГБ

В этой теме нет новых непрочитанных сообщений. Невинный мирный житель / Innocent Bystanders [Приключения, Боевик, Криминал, 1972] BDRip 1080p, Avo

salma3

56 | 22

8.09 ГБ


Начать новую тему Ответить на тему  [ 1 сообщение ] 




Для Мосгорсуда, Роскомнадзора и рекламодателей:: mosgorsud-torrent[собачка]yandex.ru
cron