Торрент файл
скачать торрент магнет ссылка Добавлен: 07 фев 2017, 15:33
Размер: 10.24 ГБ
Сидеров: 62
Личеров: 42
Статус: (salma3)
Автор

СообщениеДобавлено: 07 фев 2017, 15:33 

Не в сети
Супермодератор
Аватара пользователя
Дата регистрации:
15 фев 2012, 16:44
Возраст: 28
Спасибо: 6640 / 2146
Сообщения: 45613
Год выхода: 1988
Страна: США
Студия: Universal Pictures
Продолжительность: 01:46:49
Жанр: комедия, криминал
Режиссер: Айвен Райтман

В ролях: Арнольд Шварценеггер, Дэнни ДеВито, Келли Престон, Хлоя Уэбб, Бонни Бартлетт, Трей Уилсон, Маршалл Белл, Дэвид Карузо, Хью О’Брайан, Нехемия Персофф, ...

Перевод:
- Профессиональный (многоголосный, закадровый) ОРТ / DVD R5
- Профессиональный (многоголосный, закадровый) Карусель
- Профессиональный (многоголосный, закадровый) НТВ
- Профессиональный (многоголосный, закадровый) Премьер Видео Фильм
- Профессиональный (двухголосый, закадровый) DVD R1
- Авторский (одноголосый, закадровый) Михалёв Алексей Михайлович
- Авторский (одноголосый, закадровый) Гаврилов Андрей Юрьевич
- Субтитры

О фильме: Неожиданный оборот принимает генетический эксперимент, во время которого новорожденных близнецов, которые, кстати, совершенно непохожи друг на друга, разлучают на долгие годы. Но несчастные братья наконец встречаются…
Джулиус, образованный, но совершенно не знающий жизни гигант с добрым сердцем и Винсент, коротышка с неистребимой жаждой денег и женщин. В компании подружек и преследующего их наемного убийцы братья отправляются в путешествие по стране на поиски своей матери — но в конце концов находят гораздо большее. Только мать может сказать им правду…



Кодек: x264
Качество: BDRip 1080p
Видео: 1920x1040, 12000 kbps, 23,976 fps
Аудио #1: AC-3, 2 ch, 192 kbps (Rus) - MVO ОРТ
Аудио #2: AC-3, 2 ch, 192 kbps (Rus) - MVO Карусель
Аудио #3: AC-3, 2 ch, 192 kbps (Rus) - MVO НТВ
Аудио #4: AC-3, 2 ch, 192 kbps (Rus) - MVO Премьер Видео Фильм
Аудио #5: AC-3, 6 ch, 384 kbps (Rus) - DVO R1
Аудио #6: AC-3, 2 ch, 192 kbps (Rus) - AVO Михалёв Алексей Михайлович
Аудио #7: AC-3, 2 ch, 192 kbps (Rus) - AVO Гаврилов Андрей Юрьевич
Аудио #8: AC-3, 2 ch, 192 kbps (Eng)
Субтитры: Русские, Английские

За исходник видео спасибо - dumbass1983
За звук и сабы спасибо - tеko
x264 [info]: frame I:814 Avg QP:20.28 size:235322
x264 [info]: frame P:28215 Avg QP:23.01 size: 92869
x264 [info]: frame B:124655 Avg QP:25.29 size: 54525
x264 [info]: consecutive B-frames: 0.8% 0.9% 3.0% 16.5% 13.7% 37.6% 12.2% 9.4% 2.4% 1.3% 0.7% 1.4% 0.1%

Общее
Уникальный идентификатор : 184317218311764201278174532078303587059 (0x8AAA347AF6BB3DD2989DEEFA876A2AF3)
Полное имя : Близнецы (Twins) 1988 BDRip 1080p.mkv
Формат : Matroska
Версия формата : Version 2
Размер файла : 10,2 Гбайт
Продолжительность : 1 ч. 46 м.
Общий поток : 13,7 Мбит/сек
Дата кодирования : UTC 2017-02-06 15:48:19
Программа кодирования : mkvmerge v4.0.0 ('The Stars were mine') сборка от Jun 6 2010 16:18:42
Библиотека кодирования : libebml v1.0.0 + libmatroska v1.0.0

Видео
Идентификатор : 1
Формат : AVC
Формат/Информация : Advanced Video Codec
Профиль формата : High@L4.1
Параметр CABAC формата : Да
Параметр ReFrames формата : 4 кадра
Идентификатор кодека : V_MPEG4/ISO/AVC
Продолжительность : 1 ч. 46 м.
Битрейт : 12,0 Мбит/сек
Ширина : 1920 пикселей
Высота : 1040 пикселей
Соотношение сторон : 1,85:1
Режим частоты кадров : Постоянный
Частота кадров : 23,976 (24000/1001) кадра/сек
Цветовое пространство : YUV
Субдискретизация насыщенности : 4:2:0
Битовая глубина : 8 бит
Тип развёртки : Прогрессивная
Бит/(Пиксели*Кадры) : 0.251
Размер потока : 8,75 Гбайт (85%)
Библиотека кодирования : x264 core 146 r2538 121396c
Настройки программы : cabac=1 / ref=4 / deblock=1:-1:-1 / analyse=0x3:0x133 / me=umh / subme=11 / psy=1 / psy_rd=1.00:0.00 / mixed_ref=1 / me_range=32 / chroma_me=1 / trellis=2 / 8x8dct=1 / cqm=0 / deadzone=21,11 / fast_pskip=0 / chroma_qp_offset=-2 / threads=12 / lookahead_threads=2 / sliced_threads=0 / nr=0 / decimate=0 / interlaced=0 / bluray_compat=0 / constrained_intra=0 / bframes=12 / b_pyramid=2 / b_adapt=2 / b_bias=0 / direct=3 / weightb=1 / open_gop=0 / weightp=2 / keyint=240 / keyint_min=23 / scenecut=40 / intra_refresh=0 / rc_lookahead=60 / rc=2pass / mbtree=0 / bitrate=12000 / ratetol=1.0 / qcomp=0.60 / qpmin=0 / qpmax=69 / qpstep=4 / cplxblur=20.0 / qblur=0.5 / vbv_maxrate=50000 / vbv_bufsize=62500 / nal_hrd=none / filler=0 / ip_ratio=1.40 / pb_ratio=1.30 / aq=1:0.80
Язык : English
Default : Нет
Forced : Нет

Аудио #1
Идентификатор : 2
Формат : AC-3
Формат/Информация : Audio Coding 3
Расширение режима : CM (complete main)
Параметр Endianness формата : Big
Идентификатор кодека : A_AC3
Продолжительность : 1 ч. 46 м.
Вид битрейта : Постоянный
Битрейт : 192 Кбит/сек
Каналы : 2 канала
Расположение каналов : Front: L R
Частота : 48,0 КГц
Частота кадров : 31,250 кадров/сек (1536 spf)
Метод сжатия : С потерями
Размер потока : 147 Мбайт (1%)
Заголовок : MVO ОРТ
Язык : Russian
Default : Нет
Forced : Нет

Аудио #2
Идентификатор : 3
Формат : AC-3
Формат/Информация : Audio Coding 3
Расширение режима : CM (complete main)
Параметр Endianness формата : Big
Идентификатор кодека : A_AC3
Продолжительность : 1 ч. 46 м.
Вид битрейта : Постоянный
Битрейт : 192 Кбит/сек
Каналы : 2 канала
Расположение каналов : Front: L R
Частота : 48,0 КГц
Частота кадров : 31,250 кадров/сек (1536 spf)
Метод сжатия : С потерями
Размер потока : 147 Мбайт (1%)
Заголовок : MVO Карусель
Язык : Russian
Default : Нет
Forced : Нет

Аудио #3
Идентификатор : 4
Формат : AC-3
Формат/Информация : Audio Coding 3
Расширение режима : CM (complete main)
Параметр Endianness формата : Big
Идентификатор кодека : A_AC3
Продолжительность : 1 ч. 46 м.
Вид битрейта : Постоянный
Битрейт : 192 Кбит/сек
Каналы : 2 канала
Расположение каналов : Front: L R
Частота : 48,0 КГц
Частота кадров : 31,250 кадров/сек (1536 spf)
Метод сжатия : С потерями
Размер потока : 147 Мбайт (1%)
Заголовок : MVO НТВ
Язык : Russian
Default : Нет
Forced : Нет

Аудио #4
Идентификатор : 5
Формат : AC-3
Формат/Информация : Audio Coding 3
Расширение режима : CM (complete main)
Параметр Endianness формата : Big
Идентификатор кодека : A_AC3
Продолжительность : 1 ч. 46 м.
Вид битрейта : Постоянный
Битрейт : 192 Кбит/сек
Каналы : 2 канала
Расположение каналов : Front: L R
Частота : 48,0 КГц
Частота кадров : 31,250 кадров/сек (1536 spf)
Метод сжатия : С потерями
Размер потока : 147 Мбайт (1%)
Заголовок : MVO Премьер Видео Фильм
Язык : Russian
Default : Нет
Forced : Нет

Аудио #5
Идентификатор : 6
Формат : AC-3
Формат/Информация : Audio Coding 3
Расширение режима : CM (complete main)
Параметр Endianness формата : Big
Идентификатор кодека : A_AC3
Продолжительность : 1 ч. 46 м.
Вид битрейта : Постоянный
Битрейт : 384 Кбит/сек
Каналы : 6 каналов
Расположение каналов : Front: L C R, Side: L R, LFE
Частота : 48,0 КГц
Частота кадров : 31,250 кадров/сек (1536 spf)
Метод сжатия : С потерями
Размер потока : 293 Мбайт (3%)
Заголовок : DVO R1
Язык : Russian
Default : Нет
Forced : Нет

Аудио #6
Идентификатор : 7
Формат : AC-3
Формат/Информация : Audio Coding 3
Расширение режима : CM (complete main)
Параметр Endianness формата : Big
Идентификатор кодека : A_AC3
Продолжительность : 1 ч. 46 м.
Вид битрейта : Постоянный
Битрейт : 192 Кбит/сек
Каналы : 2 канала
Расположение каналов : Front: L R
Частота : 48,0 КГц
Частота кадров : 31,250 кадров/сек (1536 spf)
Метод сжатия : С потерями
Размер потока : 147 Мбайт (1%)
Заголовок : AVO Михалёв Алексей Михайлович [1944—1994]
Язык : Russian
Default : Нет
Forced : Нет

Аудио #7
Идентификатор : 8
Формат : AC-3
Формат/Информация : Audio Coding 3
Расширение режима : CM (complete main)
Параметр Endianness формата : Big
Идентификатор кодека : A_AC3
Продолжительность : 1 ч. 46 м.
Вид битрейта : Постоянный
Битрейт : 192 Кбит/сек
Каналы : 2 канала
Расположение каналов : Front: L R
Частота : 48,0 КГц
Частота кадров : 31,250 кадров/сек (1536 spf)
Метод сжатия : С потерями
Размер потока : 147 Мбайт (1%)
Заголовок : AVO Гаврилов Андрей Юрьевич
Язык : Russian
Default : Нет
Forced : Нет

Аудио #8
Идентификатор : 9
Формат : AC-3
Формат/Информация : Audio Coding 3
Расширение режима : CM (complete main)
Параметр Endianness формата : Big
Идентификатор кодека : A_AC3
Продолжительность : 1 ч. 46 м.
Вид битрейта : Постоянный
Битрейт : 192 Кбит/сек
Каналы : 2 канала
Расположение каналов : Front: L R
Частота : 48,0 КГц
Частота кадров : 31,250 кадров/сек (1536 spf)
Метод сжатия : С потерями
Размер потока : 147 Мбайт (1%)
Язык : English
Default : Нет
Forced : Нет

Текст #1
Идентификатор : 10
Формат : UTF-8
Идентификатор кодека : S_TEXT/UTF8
Идентификатор кодека/Информация : UTF-8 Plain Text
Язык : Russian
Default : Нет
Forced : Нет

Текст #2
Идентификатор : 11
Формат : UTF-8
Идентификатор кодека : S_TEXT/UTF8
Идентификатор кодека/Информация : UTF-8 Plain Text
Язык : English
Default : Нет
Forced : Нет



_________________
Проголосуй за трекер Открытый торрент трекер - RUS-MEDIA.ORG

Проголосуй Открытый торрент трекер - RUS-MEDIA.ORG



реклама партнёра


Вернуться к началу
 Профиль Отправить личное сообщение  
 
   Похожие торренты   Автор   Торрент   Размер 
В этой теме нет новых непрочитанных сообщений. Близнецы / Twins [комедия, криминал, 1988] BDRip, Dub

salma3

70 | 17

1.46 ГБ

В этой теме нет новых непрочитанных сообщений. Близнецы / The Skeleton Twins (Крэйг Джонсон) [Драма, Комедия, 2014] BDRip 1080p, avo+sub

Dracon

0 | 2

12.62 ГБ

В этой теме нет новых непрочитанных сообщений. Близнецы / The Skeleton Twins (Крэйг Джонсон) [Драма, Комедия, 2014] BDRip 1080p, Mvo [iTunes]

Dracon

3 | 3

12.58 ГБ

В этой теме нет новых непрочитанных сообщений. Близнецы / The Skeleton Twins (Крэйг Джонсон) [Драма, Комедия, 2014] BDRip 720p, avo+sub

Dracon

2 | 4

5.3 ГБ

В этой теме нет новых непрочитанных сообщений. Близнецы / The Skeleton Twins (Крэйг Джонсон) [Драма, Комедия, 2014] BDRip 720p, Mvo [iTunes]

Dracon

66 | 5

5.82 ГБ

В этой теме нет новых непрочитанных сообщений. Близнецы / The Skeleton Twins (Крэйг Джонсон) [Драма, Комедия, 2014] HDRip, avo

Dracon

17 | 4

1.45 ГБ

В этой теме нет новых непрочитанных сообщений. Близнецы / The Skeleton Twins (Крэйг Джонсон) [Драма, Комедия, 2014] HDRip, Mvo [iTunes]

Dracon

4 | 3

1.37 ГБ


Начать новую тему Ответить на тему  [ 1 сообщение ] 




Для Мосгорсуда, Роскомнадзора и рекламодателей:: mosgorsud-torrent[собачка]yandex.ru