Торрент файл
скачать торрент магнет ссылка Добавлен: 07 фев 2017, 15:19
Размер: 7.94 ГБ
Сидеров: 89
Личеров: 12
Статус: (salma3)
Автор

СообщениеДобавлено: 07 фев 2017, 15:19 

Не в сети
Супермодератор
Аватара пользователя
Дата регистрации:
15 фев 2012, 16:44
Возраст: 29
Спасибо: 7339 / 2147
Сообщения: 75642
Год выпуска: 2008
Жанр: триллер, драма, детектив, история
Режиссер: Клинт Иствуд

В ролях: Анджелина Джоли, Джон Малкович, Джеффри Донован, Гэттлин Гриффит, Майкл Келли, Питер Герети, Колм Фиор, Джейсон Батлер Харнер, Эми Райан, Дэнис О’Хэр

Описание:
Действие картины развивается в Лос-Анджелесе 20-х годов прошлого столетия. Обратившись в полицию с заявлением об исчезновении ребенка, главная героиня вскоре получает своего сына, но сообщает полицейским, что, несмотря на внешнее сходство, это не ее сын. Вместо помощи несчастная мать получает прописку в палате клиники для сумасшедших…



Страна: США
Продолжительность: 02:21:54
Перевод: Профессиональный (полное дублирование)
Субтитры: Русские, английские

Формат: BDRip 1080p
Видео: 1920x800p (2.40:1), 23.976 fps, AVC MPEG-4 (H.264), ~7123 kbps, 0.193 bit/pixel
Аудио1: Русский: 48 kHz, AC3 Dolby Digital, 6 ch, ~448 kbps
Аудио2: Английский: 48 kHz, AC3 Dolby Digital, 6 ch, ~448 kbps

General
Unique ID : 176998560574887095781185191208566921761 (0x8528AECB7C9B4839A38D15409A9C1A21)
Complete name : Podmena.2008.1080p.F-HD.mkv
Format : Matroska
Format version : Version 4 / Version 2
File size : 7.94 GiB
Duration : 2h 21mn
Overall bit rate : 8 014 Kbps
Encoded date : UTC 2013-09-12 20:20:54
Writing application : mkvmerge v6.2.0 ('Promised Land') built on Apr 28 2013 12:22:01
Writing library : libebml v1.3.0 + libmatroska v1.4.0

Video
ID : 1
Format : AVC
Format/Info : Advanced Video Codec
Format profile :
Format settings, CABAC : Yes
Format settings, ReFrames : 5 frames
Codec ID : V_MPEG4/ISO/AVC
Duration : 2h 21mn
Bit rate : 7 123 Kbps
Width : 1 920 pixels
Height : 800 pixels
Display aspect ratio : 2.40:1
Frame rate mode : Constant
Frame rate : 23.976 fps
Color space : YUV
Chroma subsampling : 4:2:0
Bit depth : 8 bits
Scan type : Progressive
Bits/(Pixel*Frame) : 0.193
Stream size : 6.90 GiB (87%)
Writing library : x264 core 138 r2359+704+48 3f879a0 tMod [8-bit@all X86_64]
Encoding settings : cabac=1 / ref=5 / deblock=1:-3:-3 / analyse=0x3:0x113 / me=umh / subme=11 / psy=1 / fade_compensate=0.00 / psy_rd=0.95:0.02 / mixed_ref=1 / me_range=32 / chroma_me=1 / trellis=2 / 8x8dct=1 / cqm=0 / deadzone=21,11 / fast_pskip=0 / chroma_qp_offset=-3 / threads=6 / lookahead_threads=1 / sliced_threads=0 / nr=0 / decimate=1 / interlaced=0 / bluray_compat=0 / constrained_intra=0 / fgo=0 / bframes=9 / b_pyramid=2 / b_adapt=2 / b_bias=0 / direct=3 / weightb=1 / open_gop=0 / weightp=2 / keyint=250 / keyint_min=23 / scenecut=40 / intra_refresh=0 / rc_lookahead=120 / rc=2pass / mbtree=0 / bitrate=7123 / ratetol=1.0 / qcomp=0.75 / qpmin=0:0:0 / qpmax=69:69:69 / qpstep=4 / cplxblur=20.0 / qblur=0.5 / vbv_maxrate=50000 / vbv_bufsize=62500 / nal_hrd=none / ip_ratio=1.40 / pb_ratio=1.30 / aq=4:0.85 / aq-sensitivity=15.00 / aq-factor=1.00:1.00:1.00 / aq2=0 / aq3=0
Language : English
Default : Yes
Forced : No
Matrix coefficients : BT.709

Audio #1
ID : 2
Format : AC-3
Format/Info : Audio Coding 3
Mode extension : CM (complete main)
Format settings, Endianness : Big
Codec ID : A_AC3
Duration : 2h 21mn
Bit rate mode : Constant
Bit rate : 448 Kbps
Channel(s) : 6 channels
Channel positions : Front: L C R, Side: L R, LFE
Sampling rate : 48.0 KHz
Bit depth : 16 bits
Compression mode : Lossy
Stream size : 455 MiB (6%)
Language : Russian
Default : Yes
Forced : No

Audio #2
ID : 3
Format : AC-3
Format/Info : Audio Coding 3
Mode extension : CM (complete main)
Format settings, Endianness : Big
Codec ID : A_AC3
Duration : 2h 21mn
Bit rate mode : Constant
Bit rate : 448 Kbps
Channel(s) : 6 channels
Channel positions : Front: L C R, Side: L R, LFE
Sampling rate : 48.0 KHz
Bit depth : 16 bits
Compression mode : Lossy
Stream size : 455 MiB (6%)
Language : English
Default : No
Forced : No

Text #1
ID : 4
Format : UTF-8
Codec ID : S_TEXT/UTF8
Codec ID/Info : UTF-8 Plain Text
Language : Russian
Default : No
Forced : No

Text #2
ID : 5
Format : UTF-8
Codec ID : S_TEXT/UTF8
Codec ID/Info : UTF-8 Plain Text
Language : Russian
Default : No
Forced : No

Text #3
ID : 6
Format : UTF-8
Codec ID : S_TEXT/UTF8
Codec ID/Info : UTF-8 Plain Text
Language : English
Default : No
Forced : No

Text #4
ID : 7
Format : UTF-8
Codec ID : S_TEXT/UTF8
Codec ID/Info : UTF-8 Plain Text
Title : SDH
Language : English
Default : No
Forced : No

Menu
00:00:00.000 : en:00:00:00.000
00:05:00.000 : en:00:05:00.000
00:10:00.000 : en:00:10:00.000
00:15:00.000 : en:00:15:00.000
00:20:00.000 : en:00:20:00.000
00:25:00.000 : en:00:25:00.000
00:30:00.000 : en:00:30:00.000
00:35:00.000 : en:00:35:00.000
00:40:00.000 : en:00:40:00.000
00:45:00.000 : en:00:45:00.000
00:50:00.000 : en:00:50:00.000
00:55:00.000 : en:00:55:00.000
01:00:00.000 : en:01:00:00.000
01:05:00.000 : en:01:05:00.000
01:10:00.000 : en:01:10:00.000
01:15:00.000 : en:01:15:00.000
01:20:00.000 : en:01:20:00.000
01:25:00.000 : en:01:25:00.000
01:30:00.000 : en:01:30:00.000
01:35:00.000 : en:01:35:00.000
01:40:00.000 : en:01:40:00.000
01:45:00.000 : en:01:45:00.000
01:50:00.000 : en:01:50:00.000
01:55:00.000 : en:01:55:00.000
02:00:00.000 : en:02:00:00.000
02:05:00.000 : en:02:05:00.000
02:10:00.000 : en:02:10:00.000
02:15:00.000 : en:02:15:00.000
02:20:00.000 : en:02:20:00.000





_________________
Проголосуй за трекер Открытый торрент трекер - RUS-MEDIA.ORG

Проголосуй Открытый торрент трекер - RUS-MEDIA.ORG


Вернуться к началу
 Профиль Отправить личное сообщение  
 
   Похожие торренты   Автор   Торрент   Размер 
В этой теме нет новых непрочитанных сообщений. Перебежчик / The Changeling [Ужасы, мистика, 1980] BDRip 1080p, Dvo

salma3

0 | 0

11.32 ГБ

В этой теме нет новых непрочитанных сообщений. Список контактов / Deception [триллер, драма, криминал, детектив, 2008] BDRip 1080p, Dub+Sub

salma3

12 | 6

13.95 ГБ

В этой теме нет новых непрочитанных сообщений. Опасная подмена / Double Threat [триллер, детектив, 1993] DVDRip, Avo

salma3

0 | 1

1.35 ГБ

В этой теме нет новых непрочитанных сообщений. Опасное заблуждение / Подмена (1-4 серии из 4) [триллер, детектив, 2015] WEB-DLRip

salma3

67 | 9

2.15 ГБ

В этой теме нет новых непрочитанных сообщений. Опасное заблуждение (Подмена) (1-4 серии из 4) [триллер, детектив, 2015] WEB-DLRip-AVC

salma3

92 | 16

2.74 ГБ

В этой теме нет новых непрочитанных сообщений. Вызов / Defiance [боевик, триллер, драма, военный, история, 2008] BDRip 720p , Dvo

salma3

76 | 46

11.99 ГБ

В этой теме нет новых непрочитанных сообщений. Операция Валькирия / Valkyrie [Триллер, драма, военный, история, 2008] BDRemux 1080p, Dub

salma3

5 | 2

24.16 ГБ


Начать новую тему Ответить на тему  [ 1 сообщение ] 




Для Мосгорсуда, Роскомнадзора и рекламодателей:: mosgorsud-torrent[собачка]yandex.ru
cron