Торрент файл
скачать торрент магнет ссылка Добавлен: 05 фев 2017, 22:22
Размер: 4.32 ГБ
Сидеров: 76
Личеров: 32
Статус: (salma3)
Автор

СообщениеДобавлено: 05 фев 2017, 22:22 

Не в сети
Супермодератор
Аватара пользователя
Дата регистрации:
15 фев 2012, 16:44
Возраст: 28
Спасибо: 7290 / 2147
Сообщения: 70756
Год выхода: 1990
Жанр: Комедия
Режиссер: Нери Паренти

В ролях: Ренато Поццетто, Паоло Вилладжо, Энцо Каннавале, Джанфабио Боско, Фабио Траверса, Алессандра Каселла, Сальваторе Боргезе, Бенедетта Альтиссими, Эннио Антонелли, Андреа Бельфйоре, Альберто Капоне, Ренато Д’Амор, Луиджи Николози, Тициана Пини, Саверио Талларида, Пьерфранческо Вилладжио, Пьеро Вивальди

О фильме:
Шесть новелл, рисующих несколько комичных ситуаций: во время венчания молодой пары в церковь приезжают два маляра-недотепы и все переворачивают там вверх дном; два автомеханика портят жизнь владельцам авто своими выкрутасами; парочка коммивояжеров предлагают товар хозяину гостиницы, а в результате вынуждены возмещать причиненный ими ущерб; в похоронном бюро служащие приводят в состояние полной абстракции родственников покойных; в выходной день приятели устраивают переполох на пляже; два дружка на свое несчастье оказываются двойниками настоящих мафиози…



Страна: Италия
Студия: Alto Verbano, Cecchi Gori Group Tiger Cinematografica, Maura International Films, Penta Film
Продолжительность: 01:25:20
Перевод: Профессиональный [многоголосый], авторский

Файл
Кодек: h.264
Качество: HDTVRip 720p
Видео: MPEG-4 AVC, 1280x720, 6678 Кбит/с, 25.000 кадр/с
Звук:
Аудио #1: Русский ( AC3, 2ch, 192 Кбит/с, 48.0 KHz) Авторский одноголосый (Владимир Штейн)
Аудио #2: Русский ( AC3, 2ch, 192 Кбит/с, 48.0 KHz) Профессиональный многоголосый (НТВ)
Аудио #3: Итальянский ( AC3, 2ch, 192 Кбит/с, 48.0 KHz)
Семпл

General
Unique ID : 254952627101031520835922670904950317253 (0xBFCE1703411AE5D6822D5ECCA552E0C5)
Complete name : Le Comiche.mkv
Format : Matroska
Format version : Version 4 / Version 2
File size : 4.32 GiB
Duration : 1 h 25 min
Overall bit rate : 7 254 kb/s
Movie name : Комики by D_I_A_B_L_O
Encoded date : UTC 2016-09-15 10:56:30
Writing application : mkvmerge v7.2.0 ('On Every Street') 64bit built on Sep 13 2014 15:52:10
Writing library : libebml v1.3.0 + libmatroska v1.4.1

Video
ID : 1
Format : AVC
Format/Info : Advanced Video Codec
Format profile : High@L3.1
Format settings, CABAC : Yes
Format settings, ReFrames : 5 frames
Codec ID : V_MPEG4/ISO/AVC
Duration : 1 h 25 min
Bit rate : 6 678 kb/s
Width : 1 280 pixels
Height : 720 pixels
Display aspect ratio : 16:9
Frame rate mode : Constant
Frame rate : 25.000 FPS
Color space : YUV
Chroma subsampling : 4:2:0
Bit depth : 8 bits
Scan type : Progressive
Bits/(Pixel*Frame) : 0.290
Stream size : 3.98 GiB (92%)
Writing library : x264 core 148 r2638 7599210
Encoding settings : cabac=1 / ref=5 / deblock=1:0:0 / analyse=0x3:0x133 / me=umh / subme=7 / psy=1 / psy_rd=1.00:0.00 / mixed_ref=1 / me_range=32 / chroma_me=1 / trellis=2 / 8x8dct=1 / cqm=0 / deadzone=21,11 / fast_pskip=0 / chroma_qp_offset=-2 / threads=6 / lookahead_threads=1 / sliced_threads=0 / nr=0 / decimate=1 / interlaced=0 / bluray_compat=0 / constrained_intra=0 / bframes=3 / b_pyramid=2 / b_adapt=2 / b_bias=0 / direct=1 / weightb=1 / open_gop=0 / weightp=2 / keyint=240 / keyint_min=23 / scenecut=40 / intra_refresh=0 / rc_lookahead=40 / rc=2pass / mbtree=1 / bitrate=6678 / ratetol=2.5 / qcomp=0.50 / qpmin=0 / qpmax=69 / qpstep=4 / cplxblur=20.0 / qblur=0.5 / ip_ratio=1.40 / aq=1:1.00
Default : Yes
Forced : No

Audio #1
ID : 2
Format : AC-3
Format/Info : Audio Coding 3
Mode extension : CM (complete main)
Format settings, Endianness : Big
Codec ID : A_AC3
Duration : 1 h 25 min
Bit rate mode : Constant
Bit rate : 192 kb/s
Channel(s) : 2 channels
Channel positions : Front: L R
Sampling rate : 48.0 kHz
Frame rate : 31.250 FPS (1536 spf)
Bit depth : 16 bits
Compression mode : Lossy
Stream size : 117 MiB (3%)
Title : В. Штейн
Language : Russian
Default : Yes
Forced : No

Audio #2
ID : 3
Format : AC-3
Format/Info : Audio Coding 3
Mode extension : CM (complete main)
Format settings, Endianness : Big
Codec ID : A_AC3
Duration : 1 h 25 min
Bit rate mode : Constant
Bit rate : 192 kb/s
Channel(s) : 2 channels
Channel positions : Front: L R
Sampling rate : 48.0 kHz
Frame rate : 31.250 FPS (1536 spf)
Bit depth : 16 bits
Compression mode : Lossy
Stream size : 117 MiB (3%)
Title : НТВ
Language : Russian
Default : No
Forced : No

Audio #3
ID : 4
Format : AC-3
Format/Info : Audio Coding 3
Mode extension : CM (complete main)
Format settings, Endianness : Big
Codec ID : A_AC3
Duration : 1 h 25 min
Bit rate mode : Constant
Bit rate : 192 kb/s
Channel(s) : 2 channels
Channel positions : Front: L R
Sampling rate : 48.0 kHz
Frame rate : 31.250 FPS (1536 spf)
Bit depth : 16 bits
Compression mode : Lossy
Stream size : 117 MiB (3%)
Title : Оригинал
Language : Italian
Default : No
Forced : No


_________________
Проголосуй за трекер Открытый торрент трекер - RUS-MEDIA.ORG

Проголосуй Открытый торрент трекер - RUS-MEDIA.ORG


Вернуться к началу
 Профиль Отправить личное сообщение  
 
   Похожие торренты   Автор   Торрент   Размер 
В этой теме нет новых непрочитанных сообщений. Комики 2 / Le Comiche 2 [Комедия, 1992] HDTVRip 720p, Avo

salma3

56 | 34

4.11 ГБ

В этой теме нет новых непрочитанных сообщений. Холодные небеса / Cold Heaven [драма, мелодрама, триллер, 1990] HDTVRip 720p, Dvo

salma3

28 | 8

1.85 ГБ

В этой теме нет новых непрочитанных сообщений. Сумасшедший дом / Madhouse [Комедия, 1990] BDRip 720p, Mvo

salma3

0 | 1

4.37 ГБ

В этой теме нет новых непрочитанных сообщений. Психованные / Crazy People [Комедия, 1990] WEB-DLRip 720p, Mvo

salma3

1 | 0

4.3 ГБ

В этой теме нет новых непрочитанных сообщений. Другие 48 часов / Another 48 Hrs [Боевик, комедия, 1990] WEB-DLRip 720p, Mvo [НТВ+]

salma3

18 | 2

4.86 ГБ

В этой теме нет новых непрочитанных сообщений. Флэшбэк / Flashback [боевик, драма, комедия, 1990] WEB-DL 720p, Dvo

salma3

24 | 9

3.68 ГБ

В этой теме нет новых непрочитанных сообщений. Трудный ребенок / Problem Child [комедия, семейный, 1990] WEB-DL 720p, Mvo+Sub

salma3

15 | 3

2.74 ГБ


Начать новую тему Ответить на тему  [ 1 сообщение ] 




Для Мосгорсуда, Роскомнадзора и рекламодателей:: mosgorsud-torrent[собачка]yandex.ru
cron
cron