Торрент файл
скачать торрент магнет ссылка Добавлен: 05 фев 2017, 12:07
Размер: 7.95 ГБ
Сидеров: 83
Личеров: 18
Статус: (salma3)
Автор

СообщениеДобавлено: 05 фев 2017, 12:07 

Не в сети
Супермодератор
Аватара пользователя
Дата регистрации:
15 фев 2012, 16:44
Возраст: 28
Спасибо: 6471 / 2129
Сообщения: 40974
Год выпуска: 2006
Жанр: драма, приключения, семейный
Режиссер: Фрэнк Маршалл

В ролях: Пол Уокер, Брюс Гринвуд, Мун Бладгуд, Венди Крюсон, Джерард Планкет, Аугуст Шелленберг, Джейсон Биггз, Д.Дж., Тимба, Кода

Описание:Действие фильма разворачивается на бескрайних просторах Антарктики. Научная , в состав которой входят Джерри Шепард, его лучший друг Купер и геолог, отправляется на поиски метеорита. Однако неожиданное происшествие и тяжелые погодные условия вынуждают их оставить свои собачьи упряжки и вернуться назад. И теперь восемь собак должны в течение шести месяцев бороться за выживание в ледяной пустыне и ждать, пока их спасут…



Страна: США
Продолжительность: 02:00:23
Перевод: Профессиональный (полное дублирование)

Формат: BDRip 1080p
Видео: 1920x800p (2.40:1), 23.976 fps, AVC MPEG-4 (H.264), ~8172 kbps, 0.222 bit/pixel
Аудио1: Русский: 48 kHz, AC3 Dolby Digital, 6 ch, ~640 kbps
Аудио2: Английский: 48 kHz, AC3 Dolby Digital, 6 ch, ~640 kbps

Format : Matroska
Format version : Version 4 / Version 2
File size : 7.95 GiB
Duration : 2h 1mn
Overall bit rate : 9 374 Kbps
Movie name : Белый плен.(2006).BDRip.1080p.NoLimits-Team
Encoded date : UTC 2013-08-13 08:57:38
Writing application : mkvmerge v6.3.0 ('You can't stop me!') built on Jun 28 2013 20:09:41
Writing library : libebml v1.3.0 + libmatroska v1.4.0

Video
ID : 1
Format : AVC
Format/Info : Advanced Video Codec
Format profile :
Format settings, CABAC : Yes
Format settings, ReFrames : 5 frames
Codec ID : V_MPEG4/ISO/AVC
Duration : 2h 1mn
Bit rate : 8 172 Kbps
Width : 1 920 pixels
Height : 800 pixels
Display aspect ratio : 2.40:1
Frame rate mode : Constant
Frame rate : 23.976 fps
Color space : YUV
Chroma subsampling : 4:2:0
Bit depth : 8 bits
Scan type : Progressive
Bits/(Pixel*Frame) : 0.222
Stream size : 6.71 GiB (84%)
Title : Белый плен.(2006).BDRip.1080p от NoLimits-Team Release_denis_100
Writing library : x264 core 135 r2345 f0c1c53
Encoding settings : cabac=1 / ref=5 / deblock=1:0:0 / analyse=0x3:0x113 / me=umh / subme=11 / psy=1 / psy_rd=1.00:0.15 / mixed_ref=1 / me_range=32 / chroma_me=1 / trellis=2 / 8x8dct=1 / cqm=0 / deadzone=21,11 / fast_pskip=0 / chroma_qp_offset=-3 / threads=6 / lookahead_threads=1 / sliced_threads=0 / nr=0 / decimate=0 / interlaced=0 / bluray_compat=0 / constrained_intra=0 / bframes=6 / b_pyramid=2 / b_adapt=2 / b_bias=0 / direct=3 / weightb=1 / open_gop=0 / weightp=2 / keyint=240 / keyint_min=23 / scenecut=40 / intra_refresh=0 / rc=2pass / mbtree=0 / bitrate=8172 / ratetol=1.0 / qcomp=0.60 / qpmin=0 / qpmax=69 / qpstep=4 / cplxblur=20.0 / qblur=0.5 / ip_ratio=1.40 / pb_ratio=1.30 / aq=1:0.95
Language : English
Default : Yes
Forced : No

Audio #1
ID : 2
Format : AC-3
Format/Info : Audio Coding 3
Mode extension : CM (complete main)
Format settings, Endianness : Big
Codec ID : A_AC3
Duration : 2h 1mn
Bit rate mode : Constant
Bit rate : 640 Kbps
Channel(s) : 6 channels
Channel positions : Front: L C R, Side: L R, LFE
Sampling rate : 48.0 KHz
Bit depth : 16 bits
Compression mode : Lossy
Stream size : 556 MiB (7%)
Title : Дублированный
Language : Russian
Default : No
Forced : No

Audio #2
ID : 3
Format : AC-3
Format/Info : Audio Coding 3
Mode extension : CM (complete main)
Format settings, Endianness : Big
Codec ID : A_AC3
Duration : 2h 1mn
Bit rate mode : Constant
Bit rate : 640 Kbps
Channel(s) : 6 channels
Channel positions : Front: L C R, Side: L R, LFE
Sampling rate : 48.0 KHz
Bit depth : 16 bits
Compression mode : Lossy
Stream size : 556 MiB (7%)
Title : Английский
Language : English
Default : No
Forced : No

Menu
00:00:00.000 : en:00:00:00.000
00:04:23.930 : en:00:04:23.930
00:14:59.440 : en:00:14:59.440
00:22:55.791 : en:00:22:55.791
00:30:11.768 : en:00:30:11.768
00:39:54.517 : en:00:39:54.517
00:54:30.726 : en:00:54:30.726
01:01:39.905 : en:01:01:39.905
01:07:02.852 : en:01:07:02.852
01:19:24.093 : en:01:19:24.093
01:28:36.770 : en:01:28:36.770
01:37:59.957 : en:01:37:59.957
01:43:04.595 : en:01:43:04.595
01:52:55.560 : en:01:52:55.560





_________________
Проголосуй за трекер Открытый торрент трекер - RUS-MEDIA.ORG

Проголосуй Открытый торрент трекер - RUS-MEDIA.ORG



реклама партнёра


Вернуться к началу
 Профиль Отправить личное сообщение  
 
   Похожие торренты   Автор   Торрент   Размер 
В этой теме нет новых непрочитанных сообщений. Белый плен / Eight Below [Мелодрама, Драма, Приключения, 2006] HDTVRip 720p, Dub [Open Matte]

salma3

75 | 20

4.37 ГБ

В этой теме нет новых непрочитанных сообщений. Белый призрак / White Ghost [Боевик, приключения, военный, 1988] BDRip 1080p, Mvo

salma3

12 | 13

13.48 ГБ

В этой теме нет новых непрочитанных сообщений. Санта Клаус 3: Хозяин полюса / The Santa Clause 3: The Escape Clause [Комедия, приключения, фэнтези, семейный, рождество, 2006] BDRip 1080p, Mvo

salma3

89 | 14

7.97 ГБ

В этой теме нет новых непрочитанных сообщений. Летите домой / Fly Away Home [Драма, приключения, семейный, 1996] BDRip 1080p, dub+sub

salma3

6 | 6

10.03 ГБ

В этой теме нет новых непрочитанных сообщений. Бесконечно белый медведь / Infinitely Polar Bear [Драма, комедия, 2014] BDRip 1080p, Mvo [Лицензия]

Dracon

302 | 59

10.52 ГБ

В этой теме нет новых непрочитанных сообщений. Апокалипсис / Apocalypto [боевик, триллер, драма, приключения, 2006] BDRip 1080p, Dvo+Sub

salma3

33 | 14

15.55 ГБ

В этой теме нет новых непрочитанных сообщений. Белль и Себастьян / Belle et Sébastien [Приключения, семейный, драма, экранизация, 2013] BDRip 1080p, Mvo

salma3

33 | 7

10.61 ГБ


Начать новую тему Ответить на тему  [ 1 сообщение ] 




Для Мосгорсуда, Роскомнадзора и рекламодателей:: mosgorsud-torrent[собачка]yandex.ru