Торрент файл
скачать торрент магнет ссылка Добавлен: 04 фев 2017, 14:25
Размер: 7.81 ГБ
Сидеров: 118
Личеров: 37
Статус: (salma3)
Автор

СообщениеДобавлено: 04 фев 2017, 14:25 

Не в сети
Супермодератор
Аватара пользователя
Дата регистрации:
15 фев 2012, 16:44
Возраст: 28
Спасибо: 7060 / 2147
Сообщения: 59015
Год выхода: 1991
Жанр: фэнтези, драма, комедия
Режиссер: Терри Гиллиам

В ролях: Робин Уильямс, Джефф Бриджес, Аманда Пламмер, Мерседес Руэль, Майкл Джитер, Адам Брайант, Пол Ломбарди, Дэвид Хайд Пирс, Тед Росс, Лара Харрис

О фильме:
Джек — популярный радиоведущий. У него есть чувство юмора, сарказм и профессиональный цинизм, который в итоге оборачивается трагедией: один из постоянных слушателей последовал его ироничному совету: вошел в людное кафе и разрядил полную обойму в ничего не подозревающих посетителей. Потрясенный Джек бросает работу и уходит в запой, погружаясь на дно отчаяния. В этот момент он встречает бездомного бродягу Пэрри, в прошлом — профессора истории, который увлекает его в удивительный мир собственных фантазий, где по унылым улицам огромного города шествуют средневековые рыцари, а небоскребы превращаются в величественные замки.

Вдвоем они отправляются на поиски Святого Грааля… в район Манхэттэна.



Страна: США
Продолжительность: 02:17:54
Перевод: Профессиональный (дублированный) Варус-Видео + Профессиональный (многоголосый, закадровый) R5 + Профессиональный (многоголосый, закадровый) Первый канал + Профессиональный (двухголосый, закадровый) + Авторский (одноголосый, закадровый) А.Михалёв

Файл
Формат: Matroska
Качество: BDRip 720p
Видео: 1280x720 at 23.976 fps, x264@L4.1, ~6000 kbps avg
Аудио#1: Russian: 48 kHz, AC3 Dolby Digital, 2/0 (L,R) ch, ~192 kbps avg |Дубляж, Варус-Видео|
Аудио#2: Russian: 48 kHz, AC3 Dolby Digital, 2/0 (L,R) ch, ~192 kbps avg |Многоголосый закадровый, R5|
Аудио#3: Russian: 48 kHz, AC3 Dolby Digital, 2/0 (L,R) ch, ~192 kbps avg |Многоголосый закадровый, Первый канал|
Аудио#4: Russian: 48 kHz, AC3 Dolby Digital, 3/2 (L,C,R,l,r) + LFE ch, ~448 kbps avg |Двухголосый закадровый|
Аудио#5: Russian: 48 kHz, AC3 Dolby Digital, 3/2 (L,C,R,l,r) + LFE ch, ~448 kbps avg |Авторский, А.Михалёв|
Аудио#6: English: 48 kHz, AC3 Dolby Digital, 3/2 (L,C,R,l,r) + LFE ch, ~448 kbps avg
Субтитры: Russian, English

***Сохранены оригинальные главы как на Blu-ray.
***Релиз - msltel.

На стенах видеопроката, в котором работает Джек, можно заметить постеры фильмов Терри Гиллиама «Приключения барона Мюнхгаузена» и «Бразилия».
В эпизодической роли ветерана-инвалида, собирающего милостыню, снялся американский певец и композитор Том Уэйтс.
После выхода на экраны фильма каждую новогоднюю ночь в большом зале Гранд Централ (Grand Central Station) оркестр играет вальс и все присутствующие танцуют.
Сцена массового танца в Гранд Централ изначально должна была происходить на станции метро и без танцев — по сценарию, пассажиры метро должны были слушать пение чернокожей бездомной. Гиллиам решил, что в таком виде сцена не «сработает» и внёс в неё изменения. Сцена снималась на протяжении ночи, с привлечением профессиональных танцоров и обычных пассажиров, сошедших с поезда.
Тэрри Гиллиам в этом фильме вернулся к теме Священного Грааля, однажды уже затронутой им в фильме «Монти Пайтон и священный Грааль».
[*]«Король-Рыбак» стал первым фильмом Тэрри Гиллиама, в написании сценария которого он не принимал участия. Также это первый фильм Гиллиама, в котором не задействован ни один из членов комик-труппы Monty Python.
Общее
Уникальный идентификатор : 205489192906829358219159947125157833169 (0x9A97C76BAC8260C992A8B81F0D2CA9D1)
Полное имя : Король-рыбак.1991.BDRip.720p by msltel.mkv
Формат : Matroska
Версия формата : Version 4 / Version 2
Размер файла : 7,81 Гбайт
Продолжительность : 2 ч. 17 м.
Общий поток : 8104 Кбит/сек
Название фильма : Rip by msltel
Дата кодирования : UTC 2017-02-03 17:30:20
Программа кодирования : mkvmerge v8.2.0 ('World of Adventure') 64bit
Библиотека кодирования : libebml v1.3.1 + libmatroska v1.4.2

Видео
Идентификатор : 1
Формат : AVC
Формат/Информация : Advanced Video Codec
Профиль формата : High@L4.1
Параметр CABAC формата : Да
Параметр ReFrames формата : 9 кадров
Идентификатор кодека : V_MPEG4/ISO/AVC
Продолжительность : 2 ч. 17 м.
Битрейт : 6023 Кбит/сек
Ширина : 1280 пикселей
Высота : 720 пикселей
Соотношение сторон : 16:9
Режим частоты кадров : Постоянный
Частота кадров : 23,976 кадра/сек
Цветовое пространство : YUV
Субдискретизация насыщенности : 4:2:0
Битовая глубина : 8 бит
Тип развёртки : Прогрессивная
Бит/(Пиксели*Кадры) : 0.273
Размер потока : 5,80 Гбайт (74%)
Библиотека кодирования : x264 core 146 r2538 121396c
Настройки программы : cabac=1 / ref=9 / deblock=1:-3:-2 / analyse=0x3:0x113 / me=umh / subme=11 / psy=1 / psy_rd=1.00:0.15 / mixed_ref=1 / me_range=32 / chroma_me=1 / trellis=2 / 8x8dct=1 / cqm=0 / deadzone=21,11 / fast_pskip=0 / chroma_qp_offset=-3 / threads=6 / lookahead_threads=1 / sliced_threads=0 / nr=0 / decimate=1 / interlaced=0 / bluray_compat=0 / constrained_intra=0 / bframes=9 / b_pyramid=2 / b_adapt=2 / b_bias=0 / direct=1 / weightb=1 / open_gop=0 / weightp=2 / keyint=230 / keyint_min=23 / scenecut=40 / intra_refresh=0 / rc_lookahead=40 / rc=crf / mbtree=0 / crf=20.7 / qcomp=0.60 / qpmin=0 / qpmax=69 / qpstep=4 / vbv_maxrate=62500 / vbv_bufsize=78125 / crf_max=0.0 / nal_hrd=none / filler=0 / ip_ratio=1.40 / pb_ratio=1.30 / aq=1:1.00
Язык : English
Default : Да
Forced : Нет

Аудио #1
Идентификатор : 2
Формат : AC-3
Формат/Информация : Audio Coding 3
Расширение режима : CM (complete main)
Параметр Endianness формата : Big
Идентификатор кодека : A_AC3
Продолжительность : 2 ч. 17 м.
Вид битрейта : Постоянный
Битрейт : 192 Кбит/сек
Каналы : 2 канала
Расположение каналов : Front: L R
Частота : 48,0 КГц
Битовая глубина : 16 бит
Метод сжатия : С потерями
Размер потока : 189 Мбайт (2%)
Заголовок : DUB (Варус Видео)
Язык : Russian
Default : Нет
Forced : Нет

Аудио #2
Идентификатор : 3
Формат : AC-3
Формат/Информация : Audio Coding 3
Расширение режима : CM (complete main)
Параметр Endianness формата : Big
Идентификатор кодека : A_AC3
Продолжительность : 2 ч. 17 м.
Вид битрейта : Постоянный
Битрейт : 192 Кбит/сек
Каналы : 2 канала
Расположение каналов : Front: L R
Частота : 48,0 КГц
Битовая глубина : 16 бит
Метод сжатия : С потерями
Размер потока : 189 Мбайт (2%)
Заголовок : MVO (R5)
Язык : Russian
Default : Нет
Forced : Нет

Аудио #3
Идентификатор : 4
Формат : AC-3
Формат/Информация : Audio Coding 3
Расширение режима : CM (complete main)
Параметр Endianness формата : Big
Идентификатор кодека : A_AC3
Продолжительность : 2 ч. 17 м.
Вид битрейта : Постоянный
Битрейт : 192 Кбит/сек
Каналы : 2 канала
Расположение каналов : Front: L R
Частота : 48,0 КГц
Битовая глубина : 16 бит
Метод сжатия : С потерями
Размер потока : 189 Мбайт (2%)
Заголовок : MVO (Первый канал)
Язык : Russian
Default : Нет
Forced : Нет

Аудио #4
Идентификатор : 5
Формат : AC-3
Формат/Информация : Audio Coding 3
Расширение режима : CM (complete main)
Параметр Endianness формата : Big
Идентификатор кодека : A_AC3
Продолжительность : 2 ч. 17 м.
Вид битрейта : Постоянный
Битрейт : 448 Кбит/сек
Каналы : 6 каналов
Расположение каналов : Front: L C R, Side: L R, LFE
Частота : 48,0 КГц
Битовая глубина : 16 бит
Метод сжатия : С потерями
Размер потока : 442 Мбайт (6%)
Заголовок : DVO
Язык : Russian
Default : Нет
Forced : Нет

Аудио #5
Идентификатор : 6
Формат : AC-3
Формат/Информация : Audio Coding 3
Расширение режима : CM (complete main)
Параметр Endianness формата : Big
Идентификатор кодека : A_AC3
Продолжительность : 2 ч. 17 м.
Вид битрейта : Постоянный
Битрейт : 448 Кбит/сек
Каналы : 6 каналов
Расположение каналов : Front: L C R, Side: L R, LFE
Частота : 48,0 КГц
Битовая глубина : 16 бит
Метод сжатия : С потерями
Размер потока : 442 Мбайт (6%)
Заголовок : AVO (Алексей Михалёв)
Язык : Russian
Default : Нет
Forced : Нет

Аудио #6
Идентификатор : 7
Формат : AC-3
Формат/Информация : Audio Coding 3
Расширение режима : CM (complete main)
Параметр Endianness формата : Big
Идентификатор кодека : A_AC3
Продолжительность : 2 ч. 17 м.
Вид битрейта : Постоянный
Битрейт : 448 Кбит/сек
Каналы : 6 каналов
Расположение каналов : Front: L C R, Side: L R, LFE
Частота : 48,0 КГц
Битовая глубина : 16 бит
Метод сжатия : С потерями
Размер потока : 442 Мбайт (6%)
Заголовок : original
Язык : English
Default : Нет
Forced : Нет

Текст #1
Идентификатор : 8
Формат : UTF-8
Идентификатор кодека : S_TEXT/UTF8
Идентификатор кодека/Информация : UTF-8 Plain Text
Заголовок : русские
Язык : Russian
Default : Нет
Forced : Нет

Текст #2
Идентификатор : 9
Формат : UTF-8
Идентификатор кодека : S_TEXT/UTF8
Идентификатор кодека/Информация : UTF-8 Plain Text
Заголовок : английские (для слабослышащих)
Язык : English
Default : Нет
Forced : Нет

Меню
00:00:00.000 : :Chapter 01
00:05:06.889 : :Chapter 02
00:09:14.470 : :Chapter 03
00:17:26.170 : :Chapter 04
00:22:38.690 : :Chapter 05
00:32:06.715 : :Chapter 06
00:37:58.067 : :Chapter 07
00:42:48.940 : :Chapter 08
00:52:58.382 : :Chapter 09
00:58:02.019 : :Chapter 10
01:04:46.590 : :Chapter 11
01:12:11.118 : :Chapter 12
01:19:23.131 : :Chapter 13
01:26:18.715 : :Chapter 14
01:33:35.443 : :Chapter 15
01:42:21.801 : :Chapter 16
01:51:01.237 : :Chapter 17
02:00:03.988 : :Chapter 18
02:06:04.055 : :Chapter 19
02:12:48.877 : :Chapter 20


_________________
Проголосуй за трекер Открытый торрент трекер - RUS-MEDIA.ORG

Проголосуй Открытый торрент трекер - RUS-MEDIA.ORG


Вернуться к началу
 Профиль Отправить личное сообщение  
 
   Похожие торренты   Автор   Торрент   Размер 
В этой теме нет новых непрочитанных сообщений. Король Ральф / King Ralph [мелодрама, комедия, 1991] BDRip 1080p, Mvo

salma3

27 | 2

9.23 ГБ

В этой теме нет новых непрочитанных сообщений. Аладдин и король разбойников / Aladdin and the King of Thieves [мультфильм, комедия, приключения, 1996] BDRip 720p, Dub

salma3

0 | 164

2.58 ГБ

В этой теме нет новых непрочитанных сообщений. Девушка-король / The Girl King [Драма, мелодрама, биография, история, 2015] BDRip 720p, Avo

salma3

49 | 32

5.6 ГБ

В этой теме нет новых непрочитанных сообщений. Король комедии / The King of Comedy [драма, комедия, 1982] BDRip 1080p, Mvo+Dvo+Avo+Sub

salma3

43 | 43

11.44 ГБ

В этой теме нет новых непрочитанных сообщений. Слепой король / The Blind King [ужасы, 2016] BDRip 720p, Mvo

salma3

101 | 40

3.46 ГБ

В этой теме нет новых непрочитанных сообщений. Король Квинса / The King of Queens [S01] [Комедия, 1998] BDRip 1080p, Dvo [РЕН ТВ, SET]

salma3

9 | 3

37.77 ГБ

В этой теме нет новых непрочитанных сообщений. Вредный Фред / Drop Dead Fred [фэнтези, драма, комедия, 1991] BDRip 720p, Mvo

salma3

93 | 51

4.64 ГБ


Начать новую тему Ответить на тему  [ 1 сообщение ] 




Для Мосгорсуда, Роскомнадзора и рекламодателей:: mosgorsud-torrent[собачка]yandex.ru
cron