Торрент файл
скачать торрент магнет ссылка Добавлен: 04 фев 2017, 14:22
Размер: 5.73 ГБ
Сидеров: 22
Личеров: 18
Статус: (salma3)
Автор

СообщениеДобавлено: 04 фев 2017, 14:22 

Не в сети
Супермодератор
Аватара пользователя
Дата регистрации:
15 фев 2012, 16:44
Возраст: 28
Спасибо: 6565 / 2130
Сообщения: 43671
Год выхода: 1982
Жанр: драма, детектив, история
Режиссер: Коста-Гаврас / Costa-Gavras

В ролях: Джек Леммон, Сисси Спейсек, Мелани Мейрон, Джон Ши, Чарльз Чоффи, Дэвид Кленнон, Ричард Венчур, Джерри Хардин, Ричард Брэдфорд, Джо Регалбуто

О фильме:
Молодой американский журналист Чарли таинственно исчезает во время военного переворота в Чили. Его отец Эд Хормэн и жена отправляются на розыски.
Упрямый Эд, твердо верящий в демократические ценности и непременную помощь со стороны «дяди Сэма», никак не может понять, что всякие представления о справедливости здесь надо выбросить за ненадобностью.
Что американские представители здесь действуют рука об руку с военной хунтой, пришедшей к власти в результате переворота. Что на отдельного человека всем наплевать. Что Чарли давно убит, как и тысячи других…



Страна: США
Продолжительность: 01:57:30.208
Перевод: Профессиональный (многоголосый, закадровый) R5

Файл
Кодек: h.264
Качество: BDRip 720p Исходник BluRay 1080i
Видео: 1280x696 (1.85:1), 25.000 fps, AVC, ~6144 Kbps, 0.276 bits/pixel
Звук:
Русский, 48.0 KHz, AC3, 2 ch, 192 Kbps
Английский, 48.0 KHz, AC3, 2 ch, 640 Kbps
Субтитры: нет
Общее
Уникальный идентификатор : 210397614582589685706360374313824054092 (0x9E491B4B22AA5D469A84771A22906B4C)
Полное имя : E:FILMSPropavshiy_bez_vesti.1982.BDRip720p.mkv
Формат : Matroska
Версия формата : Version 4 / Version 2
Размер файла : 5,73 Гбайт
Продолжительность : 1 ч. 57 м.
Общий поток : 6977 Кбит/сек
Дата кодирования : UTC 2017-01-23 21:27:40
Программа кодирования : mkvmerge v9.8.0 ('Kuglblids') 64bit
Библиотека кодирования : libebml v1.3.4 + libmatroska v1.4.5

Видео
Идентификатор : 1
Формат : AVC
Формат/Информация : Advanced Video Codec
Профиль формата : High@L4.1
Параметр CABAC формата : Да
Параметр ReFrames формата : 9 кадров
Идентификатор кодека : V_MPEG4/ISO/AVC
Продолжительность : 1 ч. 57 м.
Битрейт : 6144 Кбит/сек
Ширина : 1280 пикселей
Высота : 696 пикселей
Соотношение сторон : 1,85:1
Режим частоты кадров : Постоянный
Частота кадров : 25,000 кадров/сек
Цветовое пространство : YUV
Субдискретизация насыщенности : 4:2:0
Битовая глубина : 8 бит
Тип развёртки : Прогрессивная
Бит/(Пиксели*Кадры) : 0.276
Размер потока : 5,04 Гбайт (88%)
Библиотека кодирования : x264 core 148 r2638 7599210
Настройки программы : cabac=1 / ref=9 / deblock=1:-3:-3 / analyse=0x3:0x133 / me=umh / subme=11 / psy=1 / psy_rd=1.10:0.15 / mixed_ref=1 / me_range=48 / chroma_me=1 / trellis=2 / 8x8dct=1 / cqm=0 / deadzone=21,11 / fast_pskip=0 / chroma_qp_offset=-3 / threads=8 / lookahead_threads=2 / sliced_threads=0 / nr=0 / decimate=0 / interlaced=0 / bluray_compat=0 / constrained_intra=0 / bframes=10 / b_pyramid=2 / b_adapt=2 / b_bias=0 / direct=3 / weightb=1 / open_gop=0 / weightp=2 / keyint=250 / keyint_min=25 / scenecut=40 / intra_refresh=0 / rc_lookahead=60 / rc=2pass / mbtree=0 / bitrate=6144 / ratetol=1.0 / qcomp=0.60 / qpmin=0 / qpmax=69 / qpstep=4 / cplxblur=20.0 / qblur=0.5 / vbv_maxrate=40000 / vbv_bufsize=50000 / nal_hrd=none / filler=0 / ip_ratio=1.40 / pb_ratio=1.30 / aq=1:1.00
Default : Нет
Forced : Нет
Цветовой диапазон : Limited
Основные цвета : BT.709
Характеристики трансфера : BT.709
Коэффициенты матрицы : BT.709

Аудио #1
Идентификатор : 2
Формат : AC-3
Формат/Информация : Audio Coding 3
Расширение режима : CM (complete main)
Параметр Endianness формата : Big
Идентификатор кодека : A_AC3
Продолжительность : 1 ч. 57 м.
Вид битрейта : Постоянный
Битрейт : 192 Кбит/сек
Каналы : 2 канала
Расположение каналов : Front: L R
Частота : 48,0 КГц
Частота кадров : 31,250 кадров/сек (1536 spf)
Битовая глубина : 16 бит
Метод сжатия : С потерями
Размер потока : 161 Мбайт (3%)
Язык : Russian
Default : Да
Forced : Нет

Аудио #2
Идентификатор : 3
Формат : AC-3
Формат/Информация : Audio Coding 3
Расширение режима : CM (complete main)
Параметр Endianness формата : Big
Идентификатор кодека : A_AC3
Продолжительность : 1 ч. 57 м.
Вид битрейта : Постоянный
Битрейт : 640 Кбит/сек
Каналы : 2 канала
Расположение каналов : Front: L R
Частота : 48,0 КГц
Частота кадров : 31,250 кадров/сек (1536 spf)
Битовая глубина : 16 бит
Метод сжатия : С потерями
Размер потока : 538 Мбайт (9%)
Язык : English
Default : Нет
Forced : Нет

Меню
00:00:00.000 : en:00:00:00.000
00:10:16.000 : en:00:10:16.000
00:16:44.920 : en:00:16:44.920
00:24:18.120 : en:00:24:18.120
00:34:33.000 : en:00:34:33.000
00:38:36.480 : en:00:38:36.480
00:47:08.320 : en:00:47:08.320
00:58:14.520 : en:00:58:14.520
01:08:06.320 : en:01:08:06.320
01:16:04.120 : en:01:16:04.120
01:34:13.000 : en:01:34:13.000
01:49:52.480 : en:01:49:52.480


Релиз от: Temperest


_________________
Проголосуй за трекер Открытый торрент трекер - RUS-MEDIA.ORG

Проголосуй Открытый торрент трекер - RUS-MEDIA.ORG



реклама партнёра


Вернуться к началу
 Профиль Отправить личное сообщение  
 
   Похожие торренты   Автор   Торрент   Размер 
В этой теме нет новых непрочитанных сообщений. Пропавший без вести / The Missing [Season 1, Episodes 1-8 of 8] (Том Шенклэнд) [драма, криминал, детектив, 2014] HDTVRip 720p, dvo

Dracon

3 | 3

7.46 ГБ

В этой теме нет новых непрочитанных сообщений. Пропавший без вести / The Missing [s01] (Том Шенклэнд) [драма, криминал, детектив, 2014] HDTVRip, dvo

Dracon

203 | 77

4.55 ГБ

В этой теме нет новых непрочитанных сообщений. Без вести пропавшие / Missing in Action [боевик, триллер, драма, приключения, военный, 1984] BDRip 720p, Mvo+Avo+Sub

salma3

10 | 5

6.18 ГБ

В этой теме нет новых непрочитанных сообщений. Без вести пропавшие / Missing in Action [Боевик, триллер, драма, 1984] BDRemux 1080p, Mvo

salma3

2 | 1

25.56 ГБ

В этой теме нет новых непрочитанных сообщений. Без вести пропавшие 2: Начало / Missing in Action 2: The Beginning [Боевик, триллер, драма, 1985] BDRemux 1080p, Mvo

salma3

3 | 2

18.8 ГБ

В этой теме нет новых непрочитанных сообщений. Куски / Mil gritos tiene la noche [Ужасы, детектив, 1982] BDRip 720p, Avo

salma3

18 | 9

6.28 ГБ

В этой теме нет новых непрочитанных сообщений. Вся президентская рать / All the President's Men [триллер, драма, детектив, история, 1976] BDRip 720p, 2Mvo+Dvo+Avo+Sub

salma3

45 | 4

8.56 ГБ


Начать новую тему Ответить на тему  [ 1 сообщение ] 




Для Мосгорсуда, Роскомнадзора и рекламодателей:: mosgorsud-torrent[собачка]yandex.ru