Торрент файл
скачать торрент магнет ссылка Добавлен: 04 фев 2017, 14:05
Размер: 3.49 ГБ
Сидеров: 78
Личеров: 28
Статус: (salma3)
Автор

СообщениеДобавлено: 04 фев 2017, 14:05 

Не в сети
Супермодератор
Аватара пользователя
Дата регистрации:
15 фев 2012, 16:44
Возраст: 28
Спасибо: 6468 / 2129
Сообщения: 40878
Год выхода: 2006
Жанр: Ужасы, триллер
Режиссер: Саймон Уэст / Simon West

В ролях: Камилла Белль, Кэти Кэссиди, Томми Флэнеган, Тесса Томпсон, Брайан Джерат, Кларк Грегг, Дерек Де Линт, Кейт Дженнингс Грант, Дэвид Денман, Артур Янг

О фильме: На некоторые звонки лучше не отвечать - проблема лишь в том, что порой узнаешь об этом, когда уже поднял трубку… Старшеклассница Джилл остается посидеть с детьми четы Мандракис в их доме, пока хозяева ужинают в ресторане. Отправив малышей спать, девушка отчаянно скучает в огромном пустом особняке, и если бы не телефон, по которому можно поболтать с друзьями, ей стало бы сосем тоскливо. Но очередной звонок моментально отбивает у Джилл жажду общения, когда она слышит в трубке незнакомый угрожающий голос ...



Страна: США
Студия: Screen Gems, Davis Entertainment

Продолжительность: 01:26:58
Перевод : Профессиональный (полное дублирование)
Cубтитры : нет

Контейнер: MKV
Качество: WEB-DL 1080p
Видео: MPEG-4 AVC, High@L4, 4 981 kb/s, 1 920 x 1 080, 23.976 fps
Аудио 1 : Русский (AC3, 6ch, 384 kb/s, 48.0 KHz)
Аудио 2 : Английский (AC3, 6ch, 384 kb/s, 48.0 KHz)

Навигация по главам: есть (En)
Глобальные тэги: есть

Общее
Уникальный идентификатор : 201119097733832367824982974332791192949 (0x974E2117EDBFB2B7A7B8F88752987D75)
Полное имя : E:Когда звонит незнакомец When a Stranger Calls (2006).mkv
Формат : Matroska
Версия формата : Version 4 / Version 2
Размер файла : 3,49 Гбайт
Продолжительность : 1 ч. 26 м.
Общий поток : 5750 Кбит/сек
Название фильма : Когда звонит / Когда звонит незнакомец
Тип содержимого : Movie
Описание : Whatever You Do, Don't Answer The Phone
Дата выпуска : 2006-02-03
Дата кодирования : UTC 2017-02-03 17:40:19
Программа кодирования : mkvmerge v9.8.0 ('Kuglblids') 64bit
Библиотека кодирования : libebml v1.3.4 + libmatroska v1.4.5
Обложка : Yes
Attachments : cover.jpg
ACTOR : Камилла Белль, Кэти Кэссиди, Томми Флэнеган, Тесса Томпсон, Брайан Джерат, Кларк Грегг, Дерек Де Линт, Кейт Дженнингс Грант, Дэвид Денман, Артур Янг
ARTIST : Камилла Белль, Кэти Кэссиди, Томми Флэнеган, Тесса Томпсон, Брайан Джерат, Кларк Грегг, Дерек Де Линт, Кейт Дженнингс Грант, Дэвид Денман, Артур Янг
DIRECTOR : Simon West / Саймон Уэст
GENRE : ужасы, триллер
LAW_RATING : PG-13
PRODUCER : John Davis, Wyck Godfrey, Ken Lemberger / Джон Дэвис, Вик Годфри, Кен Лембергер
PRODUCTION_STUDIO : Screen Gems
SCREENPLAY_BY : Джэйк Уолл, Стив Феке, Фред Уолтон
SUMMARY : Whatever You Do, Don't Answer The Phone
SYNOPSIS : На некоторые звонки лучше не отвечать — проблема лишь в том, что порой узнаешь об этом, когда уже поднял трубку… Старшеклассница Джилл остается посидеть с детьми четы Мандракис в их доме, пока хозяева ужинают в ресторане. Отправив малышей спать, девушка отчаянно скучает в огромном пустом особняке, и если бы не телефон, по которому можно поболтать с друзьями, ей стало бы совсем тоскливо. Но очередной звонок моментально отбивает у Джилл жажду общения, когда она слышит в трубке незнакомый угрожающий голос: "Давно ли ты проверяла, как там дети?" И это только весточка от загадочного маньяка, планы которого туманны, но явно не сулят ничего хорошего. Ясно одно: рано или поздно ему надоест говорить по телефону, и Джилл придется столкнуться со страшным незнакомцем лицом к лицу!… Знаете ли Вы, что... : / Картина основана на городской легенде "Няня и мужчина на втором этаже".

Видео
Идентификатор : 1
Формат : AVC
Формат/Информация : Advanced Video Codec
Профиль формата : High@L4
Параметр CABAC формата : Да
Параметр ReFrames формата : 4 кадра
Идентификатор кодека : V_MPEG4/ISO/AVC
Продолжительность : 1 ч. 26 м.
Битрейт : 4981 Кбит/сек
Ширина : 1920 пикселей
Высота : 1080 пикселей
Соотношение сторон : 16:9
Режим частоты кадров : Постоянный
Частота кадров : 23,976 (23976/1000) кадра/сек
Цветовое пространство : YUV
Субдискретизация насыщенности : 4:2:0
Битовая глубина : 8 бит
Тип развёртки : Прогрессивная
Бит/(Пиксели*Кадры) : 0.100
Размер потока : 3,03 Гбайт (87%)
Язык : English
Default : Да
Forced : Нет
Цветовой диапазон : Limited
Основные цвета : BT.709
Характеристики трансфера : BT.709
Коэффициенты матрицы : BT.709

Аудио #1
Идентификатор : 2
Формат : AC-3
Формат/Информация : Audio Coding 3
Расширение режима : CM (complete main)
Параметр Endianness формата : Big
Идентификатор кодека : A_AC3
Продолжительность : 1 ч. 26 м.
Вид битрейта : Постоянный
Битрейт : 384 Кбит/сек
Каналы : 6 каналов
Расположение каналов : Front: L C R, Side: L R, LFE
Частота : 48,0 КГц
Частота кадров : 31,250 кадров/сек (1536 spf)
Битовая глубина : 16 бит
Метод сжатия : С потерями
Размер потока : 239 Мбайт (7%)
Заголовок : Dub
Язык : Russian
Default : Да
Forced : Нет

Аудио #2
Идентификатор : 3
Формат : AC-3
Формат/Информация : Audio Coding 3
Расширение режима : CM (complete main)
Параметр Endianness формата : Big
Идентификатор кодека : A_AC3
Продолжительность : 1 ч. 26 м.
Вид битрейта : Постоянный
Битрейт : 384 Кбит/сек
Каналы : 6 каналов
Расположение каналов : Front: L C R, Side: L R, LFE
Частота : 48,0 КГц
Частота кадров : 31,250 кадров/сек (1536 spf)
Битовая глубина : 16 бит
Метод сжатия : С потерями
Размер потока : 239 Мбайт (7%)
Язык : English
Default : Нет
Forced : Нет

Меню
00:00:00.000 : en:Start
00:03:27.751 : en:Grim Loss of Innocence
00:05:35.672 : en:Slow Second, Fast Minutes
00:09:17.145 : en:Lessons of Responsibility
00:12:11.779 : en:Touring the Good Life
00:16:13.356 : en:Making Herself at Home
00:20:03.296 : en:Ominous Silence
00:24:23.183 : en:State of Alarm
00:29:30.076 : en:Sharper Eye on the House
00:33:51.631 : en:A Surprise Visitor
00:36:43.763 : en:Out on a Limb
00:39:57.208 : en:Bad Receptions
00:46:20.886 : en:Ring Around the Rosa
00:49:04.009 : en:Checking the Children
00:50:55.955 : en:"He can see me."
00:53:49.380 : en:Not So Perfect Timing
00:56:13.776 : en:Called to the Guest House
00:59:50.536 : en:Running Scared
01:01:16.915 : en:Hard to Be Brave
01:05:19.576 : en:Lights Out
01:08:10.123 : en:Hidden Surprises
01:10:39.982 : en:Trapped in a Glass Box
01:12:05.235 : en:Submerged Struggle
01:14:52.820 : en:A Hairy Reversal
01:16:45.767 : en:Face to Face with Fear
01:18:53.104 : en:Caught Isn't Enough
01:21:00.232 : en:Alone in Fear
01:23:14.743 : en:Nightmare Never Ends


_________________
Проголосуй за трекер Открытый торрент трекер - RUS-MEDIA.ORG

Проголосуй Открытый торрент трекер - RUS-MEDIA.ORG



реклама партнёра


Вернуться к началу
 Профиль Отправить личное сообщение  
 
   Похожие торренты   Автор   Торрент   Размер 
В этой теме нет новых непрочитанных сообщений. Когда звонит незнакомец / When a Stranger Calls [ужасы, триллер, 1979] BDRip, Avo

salma3

5 | 5

1.45 ГБ

В этой теме нет новых непрочитанных сообщений. Когда звонит незнакомец / When a Stranger Calls [Ужасы, триллер, 1979] BDRip 720p, Avo+Sub

salma3

15 | 0

6.98 ГБ

В этой теме нет новых непрочитанных сообщений. Незнакомец / The Stranger (Гильермо Амоедо) [Ужасы, Триллер, Драма, Детектив, 2014] WEB-DLRip, avo

Dracon

3 | 1

1.46 ГБ

В этой теме нет новых непрочитанных сообщений. Идеальный незнакомец / Perfect stranger [триллер, драма, криминал, детектив, 2007] BDRip 1080p, Dub+Avo+Sub

salma3

47 | 9

11.03 ГБ

В этой теме нет новых непрочитанных сообщений. Незнакомец / The Stranger [боевик, триллер, 2010] ВDRip 1080р, Dvo+Sub

salma3

58 | 38

7.64 ГБ

В этой теме нет новых непрочитанных сообщений. Ночной незнакомец / Чужак в ночи / Stranger by Night [триллер, 1994] DVDRip, Mvo

salma3

7 | 4

1.34 ГБ

В этой теме нет новых непрочитанных сообщений. Незнакомец / Убийца Розмари / The Prowler [ужасы, триллер, детектив, 1981] HDRip, Mvo

salma3

12 | 7

1.45 ГБ


Начать новую тему Ответить на тему  [ 1 сообщение ] 




Для Мосгорсуда, Роскомнадзора и рекламодателей:: mosgorsud-torrent[собачка]yandex.ru