Торрент файл
скачать торрент магнет ссылка Добавлен: 02 фев 2017, 23:27
Размер: 8.7 ГБ
Сидеров: 61
Личеров: 68
Статус: (salma3)
Автор

СообщениеДобавлено: 02 фев 2017, 23:27 

Не в сети
Супермодератор
Аватара пользователя
Дата регистрации:
15 фев 2012, 16:44
Возраст: 29
Спасибо: 7379 / 2147
Сообщения: 76148
Год выпуска: 1992
Жанр: боевик, триллер, драма, военный
Выпущено: США, Перу
Режиссер: Луис Ллоса

В ролях: Том Беренджер , Билли Зейн , Дж.Т. Уолш , Аден Янг , Кен Рэдли , Рейнальдо Аренас , Гэри Суонсон , Хэнк Гаррет , Фредерик Миральотта , Ванесса Стил , Карлос Алварез , Тайлер Коппин
Перевод: Профессиональный многоголосый, Профессиональный двухголосый, Авторский одноголосый


Сюжет фильма:
Два снайпера. Том Бекет и Ричард Миллер, получают смертельно опасное задание: в джунглях Центральной Америки найти базу колумбийских наркодельцов, проникнуть внутрь и ликвидировать главаря. Возможна только одна попытка, один выстрел.



Качество: BDRip 720p
Формат: AVC (библиотека кодирования x.264)
Контейнер (Расширение): MKV
Видео: 1280x694, 8365 Кбит/сек, 23,976 кадр/сек, 0,393 Бит/[Пиксели*Кадры]
Аудио №1: русский / AC3 / 5.1 / 48 kHz / 448 kbps / |Профессиональный многоголосый, R5|
Аудио №2: русский / AC3 / 2.0 / 48 kHz / 192 kbps / |Профессиональный двухголосый, НТВ|
Аудио №3: русский / AC3 / 5.1 / 48 kHz / 640 kbps / |Авторский одноголосый, А.Гаврилов|
Аудио №4: русский / AC3 / 5.1 / 48 kHz / 640 kbps / |Авторский одноголосый, Ю.Живов|
Аудио №5: русский / AC3 / 5.1 / 48 kHz / 640 kbps / |Авторский одноголосый, Д.Пучков|
Аудио №6: русский / AC3 / 2.0 / 48 kHz / 384 kbps / |Авторский одноголосый, Л.Володарский|
Аудио №7: русский / AC3 / 2.0 / 48 kHz / 192 kbps / |Авторский одноголосый, В.Горчаков|
Аудио №8: русский / AC3 / 2.0 / 48 kHz / 192 kbps / |Авторский одноголосый, М.Латышев|
Аудио №9: английский / AC3 / 5.1 / 48 kHz / 640 kbps /
Субтитры: русские, английские
Навигация по главам(Чаптеры): есть
Продолжительность: 01:39:01

Автор рипа: Группа:


*** За исходник и звуковые дорожки спасибо - Форум любителей авторского перевода фильмов

Format : Matroska
Format version : Version 2
File size : 8.70 GiB
Duration : 1 h 39 min
Overall bit rate : 12.6 Mb/s
Movie name : Sniper.(1992).BDRip.720p.[denis100]
Encoded date : UTC 2017-02-02 14:21:28
Writing application : mkvmerge v5.8.0 ('No Sleep / Pillow') built on Sep 2 2012 15:37:04
Writing library : libebml v1.2.3 + libmatroska v1.3.0

Video
ID : 1
Format : AVC
Format/Info : Advanced Video Codec
Format profile : High@L4.1
Format settings, CABAC : Yes
Format settings, ReFrames : 9 frames
Codec ID : V_MPEG4/ISO/AVC
Duration : 1 h 39 min
Bit rate : 8 365 kb/s
Width : 1 280 pixels
Height : 694 pixels
Display aspect ratio : 1.85:1
Frame rate mode : Constant
Frame rate : 23.976 (24000/1001) FPS
Color space : YUV
Chroma subsampling : 4:2:0
Bit depth : 8 bits
Scan type : Progressive
Bits/(Pixel*Frame) : 0.393
Stream size : 5.79 GiB (66%)
Title : Sniper.(1992).BDRip.720p.[denis100]
Writing library : x264 core 148 r2744 b97ae06
Encoding settings : cabac=1 / ref=9 / deblock=1:-3:-3 / analyse=0x3:0x133 / me=umh / subme=11 / psy=1 / psy_rd=1.00:0.10 / mixed_ref=1 / me_range=32 / chroma_me=1 / trellis=2 / 8x8dct=1 / cqm=0 / deadzone=21,11 / fast_pskip=0 / chroma_qp_offset=-3 / threads=6 / lookahead_threads=1 / sliced_threads=0 / nr=0 / decimate=1 / interlaced=0 / bluray_compat=0 / constrained_intra=0 / bframes=10 / b_pyramid=2 / b_adapt=2 / b_bias=0 / direct=3 / weightb=1 / open_gop=0 / weightp=2 / keyint=240 / keyint_min=23 / scenecut=40 / intra_refresh=0 / rc=crf / mbtree=0 / crf=17.6 / qcomp=0.60 / qpmin=0 / qpmax=69 / qpstep=4 / ip_ratio=1.40 / pb_ratio=1.30 / aq=1:0.85
Language : English
Default : Yes
Forced : No

Audio #1
ID : 2
Format : AC-3
Format/Info : Audio Coding 3
Mode extension : CM (complete main)
Format settings, Endianness : Big
Codec ID : A_AC3
Duration : 1 h 39 min
Bit rate mode : Constant
Bit rate : 448 kb/s
Channel(s) : 6 channels
Channel positions : Front: L C R, Side: L R, LFE
Sampling rate : 48.0 kHz
Frame rate : 31.250 FPS (1536 spf)
Compression mode : Lossy
Stream size : 317 MiB (4%)
Title : MVO, R5
Language : Russian
Default : Yes
Forced : No

Audio #2
ID : 3
Format : AC-3
Format/Info : Audio Coding 3
Mode extension : CM (complete main)
Format settings, Endianness : Big
Codec ID : A_AC3
Duration : 1 h 39 min
Bit rate mode : Constant
Bit rate : 192 kb/s
Channel(s) : 2 channels
Channel positions : Front: L R
Sampling rate : 48.0 kHz
Frame rate : 31.250 FPS (1536 spf)
Compression mode : Lossy
Stream size : 136 MiB (2%)
Title : DVO, НТВ
Language : Russian
Default : No
Forced : No

Audio #3
ID : 4
Format : AC-3
Format/Info : Audio Coding 3
Mode extension : CM (complete main)
Format settings, Endianness : Big
Codec ID : A_AC3
Duration : 1 h 39 min
Bit rate mode : Constant
Bit rate : 640 kb/s
Channel(s) : 6 channels
Channel positions : Front: L C R, Side: L R, LFE
Sampling rate : 48.0 kHz
Frame rate : 31.250 FPS (1536 spf)
Compression mode : Lossy
Stream size : 453 MiB (5%)
Title : AVO, А.Гаврилов
Language : Russian
Default : No
Forced : No

Audio #4
ID : 5
Format : AC-3
Format/Info : Audio Coding 3
Mode extension : CM (complete main)
Format settings, Endianness : Big
Codec ID : A_AC3
Duration : 1 h 39 min
Bit rate mode : Constant
Bit rate : 640 kb/s
Channel(s) : 6 channels
Channel positions : Front: L C R, Side: L R, LFE
Sampling rate : 48.0 kHz
Frame rate : 31.250 FPS (1536 spf)
Compression mode : Lossy
Stream size : 453 MiB (5%)
Title : AVO, Ю.Живов
Language : Russian
Default : No
Forced : No

Audio #5
ID : 6
Format : AC-3
Format/Info : Audio Coding 3
Mode extension : CM (complete main)
Format settings, Endianness : Big
Codec ID : A_AC3
Duration : 1 h 39 min
Bit rate mode : Constant
Bit rate : 640 kb/s
Channel(s) : 6 channels
Channel positions : Front: L C R, Side: L R, LFE
Sampling rate : 48.0 kHz
Frame rate : 31.250 FPS (1536 spf)
Compression mode : Lossy
Stream size : 453 MiB (5%)
Title : AVO, Д.Пучков
Language : Russian
Default : No
Forced : No

Audio #6
ID : 7
Format : AC-3
Format/Info : Audio Coding 3
Mode extension : CM (complete main)
Format settings, Endianness : Big
Codec ID : A_AC3
Duration : 1 h 39 min
Bit rate mode : Constant
Bit rate : 384 kb/s
Channel(s) : 2 channels
Channel positions : Front: L R
Sampling rate : 48.0 kHz
Frame rate : 31.250 FPS (1536 spf)
Compression mode : Lossy
Stream size : 272 MiB (3%)
Title : AVO, Л.Володарский
Language : Russian
Default : No
Forced : No

Audio #7
ID : 8
Format : AC-3
Format/Info : Audio Coding 3
Mode extension : CM (complete main)
Format settings, Endianness : Big
Codec ID : A_AC3
Duration : 1 h 39 min
Bit rate mode : Constant
Bit rate : 192 kb/s
Channel(s) : 2 channels
Channel positions : Front: L R
Sampling rate : 48.0 kHz
Frame rate : 31.250 FPS (1536 spf)
Compression mode : Lossy
Stream size : 136 MiB (2%)
Title : AVO, В.Горчаков
Language : Russian
Default : No
Forced : No

Audio #8
ID : 9
Format : AC-3
Format/Info : Audio Coding 3
Mode extension : CM (complete main)
Format settings, Endianness : Big
Codec ID : A_AC3
Duration : 1 h 39 min
Bit rate mode : Constant
Bit rate : 192 kb/s
Channel(s) : 2 channels
Channel positions : Front: L R
Sampling rate : 48.0 kHz
Frame rate : 31.250 FPS (1536 spf)
Compression mode : Lossy
Stream size : 136 MiB (2%)
Title : AVO, М.Латышев
Language : Russian
Default : No
Forced : No

Audio #9
ID : 10
Format : AC-3
Format/Info : Audio Coding 3
Mode extension : CM (complete main)
Format settings, Endianness : Big
Codec ID : A_AC3
Duration : 1 h 39 min
Bit rate mode : Constant
Bit rate : 640 kb/s
Channel(s) : 6 channels
Channel positions : Front: L C R, Side: L R, LFE
Sampling rate : 48.0 kHz
Frame rate : 31.250 FPS (1536 spf)
Compression mode : Lossy
Stream size : 453 MiB (5%)
Language : English
Default : No
Forced : No

Text #1
ID : 11
Format : UTF-8
Codec ID : S_TEXT/UTF8
Codec ID/Info : UTF-8 Plain Text
Language : Russian
Default : No
Forced : No

Text #2
ID : 12
Format : UTF-8
Codec ID : S_TEXT/UTF8
Codec ID/Info : UTF-8 Plain Text
Language : English
Default : No
Forced : No

Menu
00:00:00.000 : en:00:00:00.000
00:07:04.423 : en:00:07:04.423
00:16:05.965 : en:00:16:05.965
00:25:32.528 : en:00:25:32.528
00:32:29.948 : en:00:32:29.948
00:41:24.481 : en:00:41:24.481
00:48:44.922 : en:00:48:44.922
00:56:52.409 : en:00:56:52.409
01:04:20.856 : en:01:04:20.856
01:15:30.524 : en:01:15:30.524
01:22:50.966 : en:01:22:50.966
01:29:28.363 : en:01:29:28.363


_________________
Проголосуй за трекер Открытый торрент трекер - RUS-MEDIA.ORG

Проголосуй Открытый торрент трекер - RUS-MEDIA.ORG


Вернуться к началу
 Профиль Отправить личное сообщение  
 
   Похожие торренты   Автор   Торрент   Размер 
В этой теме нет новых непрочитанных сообщений. Снайпер / Sniper [Боевик, 1992] BDRip 1080p, MVo+Dvo+Avo+SUB

salma3

68 | 50

10.91 ГБ

В этой теме нет новых непрочитанных сообщений. Снайпер / American Sniper [боевик, драма, военный, биография, 2014] BDRip-AVC, Dub

salma3

81 | 44

2.91 ГБ

В этой теме нет новых непрочитанных сообщений. Снайпер: Идеальное убийство / Sniper: Ultimate Kill [боевик, триллер, драма, 2017] BDRip 720p, Mvo [Лицензия]

salma3

436 | 291

6.57 ГБ

В этой теме нет новых непрочитанных сообщений. Снайпер / Sniper [боевик, триллер, драма, 1993] BDRip-AVC, Mvo

salma3

0 | 0

746.28 МБ

В этой теме нет новых непрочитанных сообщений. Снайпер / Sniper [боевик, триллер, драма, 1993] HDTVRip 720p, Mvo

salma3

0 | 0

4.89 ГБ

В этой теме нет новых непрочитанных сообщений. Снайпер / Sniper [боевик, триллер, драма, 1993] BDRip-HEVC 1080p, Mvo

salma3

0 | 0

5.53 ГБ

В этой теме нет новых непрочитанных сообщений. Снайпер: Специальный отряд / Sniper: Special Ops [боевик, драма, военный, 2016] HDRip, Mvo

salma3

0 | 0

1.45 ГБ


Начать новую тему Ответить на тему  [ 1 сообщение ] 




Для Мосгорсуда, Роскомнадзора и рекламодателей:: mosgorsud-torrent[собачка]yandex.ru
cron