Торрент файл
скачать торрент магнет ссылка Добавлен: 01 фев 2017, 22:12
Размер: 10.01 ГБ
Сидеров: 76
Личеров: 35
Статус: (salma3)
Автор

СообщениеДобавлено: 01 фев 2017, 22:12 

В сети
Супермодератор
Аватара пользователя
Дата регистрации:
15 фев 2012, 16:44
Возраст: 29
Спасибо: 7339 / 2147
Сообщения: 75661
Год выхода: 2002
Жанр: триллер, драма, криминал
Режиссер: Джон Малкович

В ролях: Хавьер Бардем, Хуан Диего Ботто, Лаура Моранте, Эльвира Мингез, Александра Ленкастре, Оливер Коттон, Луис Мигель Синтра, Хавьер Манрике, Абель Фолк, Мэри-Энн Берганза

О фильме:
Офицер полиции Аугустин Рехас пытается выйти на след лидера подпольной марксистской группировки Эзекила. Эти поиски, которые он ведет уже 12 лет, приводят Рехаса к встрече с Иоландой, учительницей танцев, которая изменяет всю его жизнь…



Страна: Испания, США
Продолжительность: 02:13:09
Перевод: Профессиональный [Многоголосый, закадровый] [CP Digital|]

Файл
Формат: MKV
Видео: 1920x1080 at 23,976 fps, x.264@L4.0, ~10 000 kbps avg
Аудио#1: Russian: 48 kHz, AC3, 3/2 (L,C,R,l,r) + LFE ch, ~ 448.00 kbps avg
Аудио#2: English: 48 kHz, AC3, 3/2 (L,C,R,l,r) + LFE ch, ~448.00 kbps avg
Субтитры: Russian, English

Релиз от: by dsk71



General
Unique ID : 251422164697128624831178257487694327126 (0xBD2625C6F83B10D0AD5EFD99C42EED56)
Complete name : E:Танцующая наверху.2002.1080p.WEB-DL.Rus.Eng.HDCLUB.mkv
Format : Matroska
Format version : Version 2
File size : 10.0 GiB
Duration : 2 h 13 min
Overall bit rate : 10.8 Mb/s
Encoded date : UTC 2017-02-01 07:24:54
Writing application : mkvmerge v3.1.0 ('Happy up here') built on Jan 19 2010 12:09:24
Writing library : libebml v0.7.9 + libmatroska v0.8.1

Video
ID : 1
Format : AVC
Format/Info : Advanced Video Codec
Format profile : High@L4
Format settings, CABAC : Yes
Format settings, ReFrames : 4 frames
Codec ID : V_MPEG4/ISO/AVC
Duration : 2 h 13 min
Bit rate mode : Constant
Bit rate : 10 000 kb/s
Width : 1 920 pixels
Height : 1 080 pixels
Display aspect ratio : 16:9
Frame rate mode : Constant
Frame rate : 23.976 (24000/1001) FPS
Color space : YUV
Chroma subsampling : 4:2:0
Bit depth : 8 bits
Scan type : Progressive
Bits/(Pixel*Frame) : 0.201
Stream size : 8.97 GiB (90%)
Language : English
Default : No
Forced : No
Color range : Limited
Color primaries : BT.709
Transfer characteristics : BT.709
Matrix coefficients : BT.709

Audio #1
ID : 2
Format : AC-3
Format/Info : Audio Coding 3
Mode extension : CM (complete main)
Format settings, Endianness : Big
Codec ID : A_AC3
Duration : 2 h 13 min
Bit rate mode : Constant
Bit rate : 448 kb/s
Channel(s) : 6 channels
Channel positions : Front: L C R, Side: L R, LFE
Sampling rate : 48.0 kHz
Frame rate : 31.250 FPS (1536 spf)
Bit depth : 16 bits
Compression mode : Lossy
Stream size : 427 MiB (4%)
Title : MVO
Language : Russian
Default : Yes
Forced : No

Audio #2
ID : 3
Format : AC-3
Format/Info : Audio Coding 3
Mode extension : CM (complete main)
Format settings, Endianness : Big
Codec ID : A_AC3
Duration : 2 h 13 min
Bit rate mode : Constant
Bit rate : 448 kb/s
Channel(s) : 6 channels
Channel positions : Front: L C R, Side: L R, LFE
Sampling rate : 48.0 kHz
Frame rate : 31.250 FPS (1536 spf)
Bit depth : 16 bits
Compression mode : Lossy
Stream size : 427 MiB (4%)
Language : English
Default : No
Forced : No

Text #1
ID : 4
Format : UTF-8
Codec ID : S_TEXT/UTF8
Codec ID/Info : UTF-8 Plain Text
Language : Russian
Default : Yes
Forced : No

Text #2
ID : 5
Format : UTF-8
Codec ID : S_TEXT/UTF8
Codec ID/Info : UTF-8 Plain Text
Language : English
Default : No
Forced : No


_________________
Проголосуй за трекер Открытый торрент трекер - RUS-MEDIA.ORG

Проголосуй Открытый торрент трекер - RUS-MEDIA.ORG


Вернуться к началу
 Профиль Отправить личное сообщение  
 
   Похожие торренты   Автор   Торрент   Размер 
В этой теме нет новых непрочитанных сообщений. Танцующая наверху / The Dancer Upstairs [триллер, драма, криминал, 2002] WEB-DLRip, Mvo

salma3

33 | 15

2.18 ГБ

В этой теме нет новых непрочитанных сообщений. Танцующая наверху / The Dancer Upstairs [триллер, драма, криминал, 2002] WEB-DLRip-AVC, Mvo+Sub

salma3

48 | 12

2.18 ГБ

В этой теме нет новых непрочитанных сообщений. Танцующая наверху / The Dancer Upstairs [Драма, 2002] WEB-DLRip 720р, Mvo

salma3

9 | 4

5.3 ГБ

В этой теме нет новых непрочитанных сообщений. До свидания там, наверху / Au revoir lа-haut [драма, криминал, 2017] BDRip 1080p, Dub [Tunes]

salma3

105 | 109

9.16 ГБ

В этой теме нет новых непрочитанных сообщений. До свидания там, наверху / Au revoir lа-haut [драма, криминал, 2017] HDRip, Dub [Tunes]

salma3

649 | 207

2.05 ГБ

В этой теме нет новых непрочитанных сообщений. Комната страха / Panic Room [триллер, драма, криминал, 2002] WEB-DL 1080p, Dub

salma3

15 | 2

7.72 ГБ

В этой теме нет новых непрочитанных сообщений. Роковая женщина / Femme Fatale [Триллер, драма, криминал, 2002] WEB-DL 1080p, Dub

salma3

0 | 0

11.63 ГБ


Начать новую тему Ответить на тему  [ 1 сообщение ] 




Для Мосгорсуда, Роскомнадзора и рекламодателей:: mosgorsud-torrent[собачка]yandex.ru
cron