Торрент файл
скачать торрент магнет ссылка Добавлен: 28 янв 2017, 14:53
Размер: 7.76 ГБ
Сидеров: 76
Личеров: 31
Статус: (salma3)
Автор

СообщениеДобавлено: 28 янв 2017, 14:53 

Не в сети
Супермодератор
Аватара пользователя
Дата регистрации:
15 фев 2012, 16:44
Возраст: 28
Спасибо: 6644 / 2146
Сообщения: 45843
Год выхода: 1992
Жанр: триллер, драма, мелодрама, музыка
Режиссер: Мик Джексон

В ролях: Кевин Костнер, Уитни Хьюстон, Гари Кемп, Билл Коббс, Ральф Уэйт, Томас Арана, Мишель Ламар Ричардс, Майк Старр, Кристофер Бирт, Девон Никсон

О фильме: Фрэнк Фармер, сотрудник службы безопасности президента Рейгана, чувствует себя отчасти виновным в том, что в его отсутствие на президента было совершено покушение. Он покидает службу и за большой гонорар, но все же нехотя, нанимается телохранителем чернокожей певицы и актрисы Рэйчел Мэррон, которая постоянно получает письма с угрозами.

Первоначальная антипатия, возникшая между ними, постепенно перерастает в любовь. Сложившаяся ситуация мешает телохранителю исполнять свой профессиональный долг, что приводит к частым конфликтам между Фрэнком и Рэйчел… Фармер приходит к выводу, что угроза жизни Рэйчел исходит отнюдь не от психопата, а от профессионального убийцы.



Выпущено: Warner Bros
Продолжительность: 02:09:20
Перевод: Дублированный [лицензия]

Файл
Кодек: x264
Качество: BDRip (источник: Blu-ray Disc)
Видео: 1920x1080 (16:9), 23.976 fps, 7310 kbps
Аудио #1: AC-3, 6 ch, 640 kbps (Rus)
Аудио #2: AC-3, 6 ch, 640 kbps (Eng)
Субтитры: Русские, Английские

Скачать: сэмпл

Общее
Уникальный идентификатор : 229993136055492214313194743609646040393 (0xAD0711180DBDE293AF0DB8AB023EC549)
Полное имя : The.Bodyguard.1992.BDRip.1080p.Rus.Eng.mkv
Формат : Matroska
Версия формата : Version 2
Размер файла : 7,76 Гбайт
Продолжительность : 2 ч. 9 м.
Общий поток : 8587 Кбит/сек
Название фильма : Телохранитель / The Bodyguard (1992)
Дата кодирования : UTC 2013-04-27 15:29:52
Программа кодирования : mkvmerge v5.8.0 ('No Sleep / Pillow') built on Sep 2 2012 15:37:04
Библиотека кодирования : libebml v1.2.3 + libmatroska v1.3.0

Видео
Идентификатор : 1
Формат : AVC
Формат/Информация : Advanced Video Codec
Профиль формата : High@L4.1
Параметр CABAC формата : Да
Параметр ReFrames формата : 4 кадра
Идентификатор кодека : V_MPEG4/ISO/AVC
Продолжительность : 2 ч. 9 м.
Битрейт : 7310 Кбит/сек
Ширина : 1920 пикселей
Высота : 1080 пикселей
Соотношение сторон : 16:9
Частота кадров : 23,976 кадра/сек
Цветовое пространство : YUV
Субдискретизация насыщенности : 4:2:0
Битовая глубина : 8 бит
Тип развёртки : Прогрессивная
Бит/(Пиксели*Кадры) : 0.147
Размер потока : 6,45 Гбайт (83%)
Заголовок : Release by AlexKa
Библиотека кодирования : x264 core 130 r2273 b3065e6
Настройки программы : cabac=1 / ref=4 / deblock=1:-3:-3 / analyse=0x3:0x133 / me=umh / subme=10 / psy=1 / psy_rd=1.00:0.10 / mixed_ref=1 / me_range=32 / chroma_me=1 / trellis=2 / 8x8dct=1 / cqm=0 / deadzone=21,11 / fast_pskip=0 / chroma_qp_offset=-3 / threads=12 / lookahead_threads=1 / sliced_threads=0 / nr=0 / decimate=0 / interlaced=0 / bluray_compat=0 / constrained_intra=0 / bframes=6 / b_pyramid=2 / b_adapt=2 / b_bias=0 / direct=3 / weightb=1 / open_gop=0 / weightp=2 / keyint=240 / keyint_min=23 / scenecut=40 / intra_refresh=0 / rc=2pass / mbtree=0 / bitrate=7310 / ratetol=1.0 / qcomp=0.60 / qpmin=0 / qpmax=69 / qpstep=4 / cplxblur=20.0 / qblur=0.5 / ip_ratio=1.40 / pb_ratio=1.30 / aq=1:0.80
Язык : English

Аудио #1
Идентификатор : 2
Формат : AC-3
Формат/Информация : Audio Coding 3
Расширение режима : CM (complete main)
Идентификатор кодека : A_AC3
Продолжительность : 2 ч. 9 м.
Вид битрейта : Постоянный
Битрейт : 640 Кбит/сек
Каналы : 6 каналов
Расположение каналов : Front: L C R, Side: L R, LFE
Частота : 48,0 КГц
Битовая глубина : 16 бит
Метод сжатия : С потерями
Размер потока : 592 Мбайт (7%)
Заголовок : Rus
Язык : Russian

Аудио #2
Идентификатор : 3
Формат : AC-3
Формат/Информация : Audio Coding 3
Расширение режима : CM (complete main)
Идентификатор кодека : A_AC3
Продолжительность : 2 ч. 9 м.
Вид битрейта : Постоянный
Битрейт : 640 Кбит/сек
Каналы : 6 каналов
Расположение каналов : Front: L C R, Side: L R, LFE
Частота : 48,0 КГц
Битовая глубина : 16 бит
Метод сжатия : С потерями
Размер потока : 592 Мбайт (7%)
Заголовок : Eng
Язык : English

Текст #1
Идентификатор : 4
Формат : UTF-8
Идентификатор кодека : S_TEXT/UTF8
Идентификатор кодека/Информация : UTF-8 Plain Text
Заголовок : Rus
Язык : Russian

Текст #2
Идентификатор : 5
Формат : UTF-8
Идентификатор кодека : S_TEXT/UTF8
Идентификатор кодека/Информация : UTF-8 Plain Text
Заголовок : Eng
Язык : English

Меню
00:00:00.000 : en:On and off the job (Credits).
00:03:48.562 : en:Recruiting the best.
00:05:22.364 : en:My disguise; meeting the client.
00:12:46.307 : en:Fan letter ("I Have Nothing").
00:17:19.247 : en:The person who always gets hit.
00:19:35.132 : en:Precautions; the ego wall.
00:23:45.424 : en:Under surveillance.
00:26:13.697 : en:Strained relations.
00:30:11.476 : en:Run to You.
00:31:23.507 : en:A night out.
00:35:30.754 : en:Rachel's time ("Queen of the Night").
00:38:39.776 : en:Pandemonium.
00:42:08.067 : en:Playing with knives.
00:44:09.272 : en:Getting fixed up.
00:46:35.668 : en:A fan's trophies.
00:47:39.148 : en:Farmer's kind of date (Yojimbo clip).
00:51:51.692 : en:"I Will Always Love You" (John Doe); "I'll protect you."
00:54:09.121 : en:Sword's point; "I can't protect you like this."
01:01:46.077 : en:On the job in Miami (I Have Nothing).
01:04:40.418 : en:The party; an ex-colleague.
01:11:01.966 : en:Insecure.
01:14:17.912 : en:"I'm afraid."
01:17:41.115 : en:Country retreat; the Reagan thing.
01:20:55.017 : en:Dinner; next moves ("You didn't say no to the boss").
01:26:19.758 : en:Jesus Love Me; a saboteur doesn't.
01:30:13.033 : en:Confession in the dark.
01:34:01.010 : en:Shots in the dark.
01:36:18.898 : en:An arrest is made.
01:37:12.118 : en:Sorrow; "I'm afraid of not being there."
01:40:27.355 : en:"I have you to protect me."
01:43:40.464 : en:Arrival at the Oscars.
01:47:27.858 : en:Backstage reunion.
01:48:43.809 : en:"This is the night" ("I Have Nothing").
01:53:37.352 : en:"I know who it is."
01:56:02.956 : en:The winner takes the stage.
01:59:26.159 : en:Under control.
02:00:54.581 : en:"I Will Always Love You"
02:03:34.407 : en:Guiding and protecting; End Credits (Queen of the Night).
x264 [info]: frame I:1232 Avg QP:18.91 size:140173
x264 [info]: frame P:46097 Avg QP:22.15 size: 70853
x264 [info]: frame B:138732 Avg QP:24.67 size: 26294


_________________
Проголосуй за трекер Открытый торрент трекер - RUS-MEDIA.ORG

Проголосуй Открытый торрент трекер - RUS-MEDIA.ORG



реклама партнёра


Вернуться к началу
 Профиль Отправить личное сообщение  
 
   Похожие торренты   Автор   Торрент   Размер 
В этой теме нет новых непрочитанных сообщений. Телохранитель киллера / The Hitman's Bodyguard [боевик, комедия, 2017] BDRip 1080p, Dub+Sub [Лицензия]

salma3

0 | 0

15.05 ГБ

В этой теме нет новых непрочитанных сообщений. Телохранитель киллера / The Hitman's Bodyguard [Боевик, комедия, 2017] Blu-ray 1080p, Dub+Sub [Лицензия]

salma3

32 | 5

22.97 ГБ

В этой теме нет новых непрочитанных сообщений. Телохранитель киллера / The Hitman's Bodyguard [Боевик, Комедия, 2017] BDRemux 1080p, Dub [Лицензия]

salma3

0 | 0

41.03 ГБ

В этой теме нет новых непрочитанных сообщений. Телохранитель киллера / The Hitman's Bodyguard [боевик, комедия, 2017] BDRip, Dub [Лицензия]

salma3

1997 | 331

1.46 ГБ

В этой теме нет новых непрочитанных сообщений. Телохранитель киллера / The Hitman's Bodyguard [боевик, комедия, 2017] BDRip 720p, Dub+Sub [Лицензия]

salma3

0 | 0

7.63 ГБ

В этой теме нет новых непрочитанных сообщений. Телохранитель киллера / The Hitman's Bodyguard [Боевик, Комедия, 2017] BDRip 1080p, Dub [iTunes]

colian7

16 | 106

7.52 ГБ

В этой теме нет новых непрочитанных сообщений. Телохранитель киллера / The Hitman's Bodyguard [Боевик, комедия, 2017] UHD BDRemux 2160p, Dub [4K] [Лицензия]

salma3

1 | 46

71.14 ГБ


Начать новую тему Ответить на тему  [ 1 сообщение ] 




Для Мосгорсуда, Роскомнадзора и рекламодателей:: mosgorsud-torrent[собачка]yandex.ru
cron