Торрент файл
скачать торрент магнет ссылка Добавлен: 28 янв 2017, 14:38
Размер: 12.5 ГБ
Сидеров: 40
Личеров: 24
Статус: (salma3)
Автор

СообщениеДобавлено: 28 янв 2017, 14:38 

В сети
Супермодератор
Аватара пользователя
Дата регистрации:
15 фев 2012, 16:44
Возраст: 28
Спасибо: 6593 / 2145
Сообщения: 44208
Год выпуска: 2012
Жанр: триллер, драма, криминал, боевик
Режиссер: Нильс Арден Оплев

В ролях: Колин Фаррелл, Нуми Рапас, Терренс Ховард, Доминик Купер, Изабель Юппер, Луис Да Силва мл., Стью Беннетт, Фрэнки Джи, Деклан Мулвей, Джон Ченатьемпо

Описание:
История человека по имени Виктор, он правая рука лидера преступной группировки из Нью-Йорка. Виктор неспроста оказался в криминальном синдикате: мафия уничтожила его семью, поэтому он хочет отомстить. Об этом узнает загадочная Беатрис, соблазняет его и шантажирует. Однако у героев только одна цель в жизни — месть. И она приведет их к кровавой развязке.



Страна: США
Продолжительность: 01:57:47
Перевод: Профессиональный (полное дублирование)
Субтитры: Русские, английские, румынские

Формат: BDRip, MKV, H.264, AC3/DTS
Видео: 1920x800p (2.40:1), 23.976 fps, AVC MPEG-4 (H.264), ~12.8 Mbps, 0.348 bit/pixel
Аудио1: Русский: 48 kHz, AC3 Dolby Digital, 6 ch, ~256 kbps
Аудио2: Русский: 48 kHz, AC3 Dolby Digital, 6 ch, ~640 kbps
Аудио3: Английский: 48 kHz, DTS, 6 ch, ~1509 kbps

Формат : Matroska
Версия формата : Version 1
Размер файла : 12,5 Гбайт
Продолжительность : 1 ч. 57 м.
Общий поток : 15,2 Мбит/сек
Дата кодирования : UTC 2013-10-06 13:04:30
Программа кодирования : mkvmerge v2.1.0 ('Another Place To Fall') built on Aug 19 2007 13:40:07
Библиотека кодирования : libebml v0.7.7 + libmatroska v0.8.1

Видео
Идентификатор : 1
Формат : AVC
Формат/Информация : Advanced Video Codec
Профиль формата :
Параметр CABAC формата : Да
Параметр ReFrames формата : 5 кадров
Идентификатор кодека : V_MPEG4/ISO/AVC
Продолжительность : 1 ч. 57 м.
Битрейт : 12,8 Мбит/сек
Ширина : 1920 пикселей
Высота : 800 пикселей
Соотношение сторон : 2,40:1
Режим частоты кадров : Постоянный
Частота кадров : 23,976 кадра/сек
Цветовое пространство : YUV
Субдискретизация насыщенности : 4:2:0
Битовая глубина : 8 бит
Тип развёртки : Прогрессивная
Бит/(Пиксели*Кадры) : 0.348
Размер потока : 10,3 Гбайт (82%)
Заголовок : Dead.Man.Down.2013.1080p.BluRay.DTS.x264-HDMaNiAcS
Библиотека кодирования : x264 core 133 r2334 a3ac64b
Настройки программы : cabac=1 / ref=5 / deblock=1:-3:-3 / analyse=0x3:0x133 / me=tesa / subme=11 / psy=1 / psy_rd=1.05:0.00 / mixed_ref=1 / me_range=32 / chroma_me=1 / trellis=2 / 8x8dct=1 / cqm=0 / deadzone=21,11 / fast_pskip=1 / chroma_qp_offset=-2 / threads=12 / lookahead_threads=2 / sliced_threads=0 / nr=0 / decimate=1 / interlaced=0 / bluray_compat=0 / constrained_intra=0 / bframes=8 / b_pyramid=2 / b_adapt=2 / b_bias=0 / direct=3 / weightb=1 / open_gop=0 / weightp=2 / keyint=240 / keyint_min=23 / scenecut=40 / intra_refresh=0 / rc=2pass / mbtree=0 / bitrate=12800 / ratetol=1.0 / qcomp=0.70 / qpmin=10 / qpmax=69 / qpstep=4 / cplxblur=20.0 / qblur=0.5 / ip_ratio=1.40 / pb_ratio=1.30 / aq=2:0.75
Язык : English
Default : Да
Forced : Нет

Аудио #1
Идентификатор : 2
Формат : AC-3
Формат/Информация : Audio Coding 3
Расширение режима : CM (complete main)
Параметр Endianness формата : Big
Идентификатор кодека : A_AC3
Продолжительность : 1 ч. 57 м.
Вид битрейта : Постоянный
Битрейт : 256 Кбит/сек
Каналы : 6 каналов
Расположение каналов : Front: L C R, Side: L R, LFE
Частота : 48,0 КГц
Битовая глубина : 16 бит
Метод сжатия : С потерями
Размер потока : 216 Мбайт (2%)
Язык : Russian
Default : Да
Forced : Нет

Аудио #2
Идентификатор : 3
Формат : AC-3
Формат/Информация : Audio Coding 3
Расширение режима : CM (complete main)
Параметр Endianness формата : Big
Идентификатор кодека : A_AC3
Продолжительность : 1 ч. 57 м.
Вид битрейта : Постоянный
Битрейт : 640 Кбит/сек
Каналы : 6 каналов
Расположение каналов : Front: L C R, Side: L R, LFE
Частота : 48,0 КГц
Битовая глубина : 16 бит
Метод сжатия : С потерями
Размер потока : 539 Мбайт (4%)
Заголовок : Гаврилов
Язык : Russian
Default : Нет
Forced : Нет

Аудио #3
Идентификатор : 4
Формат : DTS
Формат/Информация : Digital Theater Systems
Режим : 16
Параметр Endianness формата : Big
Идентификатор кодека : A_DTS
Продолжительность : 1 ч. 57 м.
Вид битрейта : Постоянный
Битрейт : 1509 Кбит/сек
Каналы : 6 каналов
Расположение каналов : Front: L C R, Side: L R, LFE
Частота : 48,0 КГц
Битовая глубина : 24 бит
Метод сжатия : С потерями
Размер потока : 1,24 Гбайт (10%)
Язык : English
Default : Нет
Forced : Нет

Текст #1
Идентификатор : 5
Формат : UTF-8
Идентификатор кодека : S_TEXT/UTF8
Идентификатор кодека/Информация : UTF-8 Plain Text
Язык : Russian
Default : Да
Forced : Нет

Текст #2
Идентификатор : 6
Формат : UTF-8
Идентификатор кодека : S_TEXT/UTF8
Идентификатор кодека/Информация : UTF-8 Plain Text
Язык : Romanian
Default : Нет
Forced : Нет

Текст #3
Идентификатор : 7
Формат : UTF-8
Идентификатор кодека : S_TEXT/UTF8
Идентификатор кодека/Информация : UTF-8 Plain Text
Язык : English
Default : Нет
Forced : Нет

Меню
00:00:00.000 : en:00:00:00.000
00:11:40.950 : en:00:11:40.950
00:16:48.591 : en:00:16:48.591
00:25:18.642 : en:00:25:18.642
00:30:38.628 : en:00:30:38.628
00:36:37.779 : en:00:36:37.779
00:41:19.811 : en:00:41:19.811
00:46:36.669 : en:00:46:36.669
00:55:52.516 : en:00:55:52.516
01:03:13.206 : en:01:03:13.206
01:12:09.033 : en:01:12:09.033
01:18:25.034 : en:01:18:25.034
01:24:07.042 : en:01:24:07.042
01:31:35.865 : en:01:31:35.865
01:36:36.165 : en:01:36:36.165
01:42:52.416 : en:01:42:52.416





_________________
Проголосуй за трекер Открытый торрент трекер - RUS-MEDIA.ORG

Проголосуй Открытый торрент трекер - RUS-MEDIA.ORG



реклама партнёра


Вернуться к началу
 Профиль Отправить личное сообщение  
 
   Похожие торренты   Автор   Торрент   Размер 
В этой теме нет новых непрочитанных сообщений. Одним меньше / Один уже покойник / Dead Man Down [драма, криминал, боевик, 2012] BDRip, Avo [Гаврилов]

salma3

76 | 21

1.46 ГБ

В этой теме нет новых непрочитанных сообщений. Взять живым или мертвым / Wanted: Dead or Alive [боевик, триллер, драма, криминал, 1987] BDRip 1080p, Mvo

salma3

59 | 14

10.82 ГБ

В этой теме нет новых непрочитанных сообщений. Ботинки мертвеца / Dead Man's Shoes [триллер, драма, криминал, 2004] BDRip 1080p, Avo+Dvo

salma3

111 | 24

9.86 ГБ

В этой теме нет новых непрочитанных сообщений. Козерог один / Capricorn One [фантастика, боевик, триллер, 1977] BDRip 1080p, Mvo+Dvo+Sub

salma3

58 | 6

7.95 ГБ

В этой теме нет новых непрочитанных сообщений. Один шанс на двоих / 1 chance sur 2 [боевик, драма, комедия, 1998] BDRip 1080p, Mvo+Avo

salma3

28 | 36

14.45 ГБ

В этой теме нет новых непрочитанных сообщений. Наблюдатель / Le guetteur [боевик, триллер, криминал, 2012] BDRip 1080p, Mvo+Svo+Sub

salma3

64 | 21

6.71 ГБ

В этой теме нет новых непрочитанных сообщений. Один дома 5: Один в темноте / Home Alone: The Holiday Heist [комедия, криминал, семейный, 2012] WEB-DL 720p, Mvo

salma3

201 | 17

3.04 ГБ


Начать новую тему Ответить на тему  [ 1 сообщение ] 




Для Мосгорсуда, Роскомнадзора и рекламодателей:: mosgorsud-torrent[собачка]yandex.ru