Торрент файл
скачать торрент магнет ссылка Добавлен: 28 янв 2017, 13:36
Размер: 7.33 ГБ
Сидеров: 102
Личеров: 23
Статус: (salma3)
Автор

СообщениеДобавлено: 28 янв 2017, 13:36 

Не в сети
Супермодератор
Аватара пользователя
Дата регистрации:
15 фев 2012, 16:44
Возраст: 28
Спасибо: 6644 / 2146
Сообщения: 46014
Год выхода: 1990
Жанр: Ужасы
Режиссер: Том Савини

В ролях: Тони Тодд, Патриша Тэллман, Том Таулз, МакКи Андерсон, Уильям Батлер, Кэти Финнеран, Билл Моусли, Хезер Мазур, Дэвид В. Батлер, Захари Мотт

О фильме:
Брат и сестра приезжают навестить могилу своей матушки на кладбище в окрестностях Питтсбурга. Брат пугает сестру рассказами о зомби, не подозревая о том, что он весьма недалек от реальности. Внезапно на них набрасывается один из покойников; брата убивают, а Барбара убегает, обнаруживая по дороге фермерский дом. Через какое-то время к нему подъезжает Бен, в бензобаке машины которого кончился бензин. Они решают остаться в доме и готовиться к обороне. Позже выясняется, что в подвале дома прячутся еще несколько человек. Все вместе они должны забаррикадироваться и переждать страшную ночь — ведь зомби не станут сидеть на крыльце и ждать, пока люди выйдут сами — они будут пытаться прорваться внутрь — желание отведать человеческого мяса в них безумно сильно.

Страна: США
Продолжительность: 01:28:15
Перевод: Авторский (одноголосый закадровый) Вартан Дохалов
Авторский (одноголосый закадровый) Юрий Живов
Авторский (одноголосый закадровый) Jakob Bellmann

Оригинал
Кодек: h.264
Качество: BDRip 1080p
Видео: 1 920 x 1 040, 9 779 kb/s, 23.976 FPS
Звук:
1. AC-3, 640 kb/s, 6 channels, Авторский (одноголосый закадровый) Вартан Дохалов
2. AC-3, 640 kb/s, 6 channels, Авторский (одноголосый закадровый) Юрий Живов
3. AC-3, 448 kb/s, 6 channels, Авторский (одноголосый закадровый) Jakob Bellmann
4. AC-3, 384 kb/s, 6 channels, Оригинал(English)
Субтитры: Русские, Английские




Format : Matroska
Format version : Version 4 / Version 2
File size : 7.33 GiB
Duration : 1 h 28 min
Overall bit rate : 11.9 Mb/s
Encoded date : UTC 2015-11-17 09:45:21
Writing application : mkvmerge v7.8.0 ('River Man') 32bit built on Apr 3 2015 12:11:22
Writing library : libebml v1.3.1 + libmatroska v1.4.2
Video
ID : 1
Format : AVC
Format/Info : Advanced Video Codec
Format profile : High@L4.1
Format settings, CABAC : Yes
Format settings, ReFrames : 4 frames
Codec ID : V_MPEG4/ISO/AVC
Duration : 1 h 28 min
Bit rate : 9 779 kb/s
Width : 1 920 pixels
Height : 1 040 pixels
Display aspect ratio : 1.85:1
Frame rate mode : Constant
Frame rate : 23.976 (24000/1001) FPS
Color space : YUV
Chroma subsampling : 4:2:0
Bit depth : 8 bits
Scan type : Progressive
Bits/(Pixel*Frame) : 0.204
Stream size : 5.89 GiB (80%)
Writing library : x264 core 146 r2538 121396c
Encoding settings : cabac=1 / ref=4 / deblock=1:-2:-2 / analyse=0x3:0x133 / me=umh / subme=11 / psy=1 / psy_rd=1.00:0.01 / mixed_ref=1 / me_range=48 / chroma_me=1 / trellis=2 / 8x8dct=1 / cqm=0 / deadzone=21,11 / fast_pskip=1 / chroma_qp_offset=-3 / threads=6 / lookahead_threads=1 / sliced_threads=0 / nr=0 / decimate=1 / interlaced=0 / bluray_compat=0 / constrained_intra=0 / bframes=16 / b_pyramid=2 / b_adapt=2 / b_bias=0 / direct=3 / weightb=1 / open_gop=0 / weightp=2 / keyint=240 / keyint_min=22 / scenecut=50 / intra_refresh=0 / rc_lookahead=60 / rc=2pass / mbtree=1 / bitrate=9779 / ratetol=1.0 / qcomp=0.60 / qpmin=0 / qpmax=69 / qpstep=4 / cplxblur=20.0 / qblur=0.5 / ip_ratio=1.40 / aq=1:1.00
Language : English
Default : Yes
Forced : No
Audio #1
ID : 2
Format : AC-3
Format/Info : Audio Coding 3
Mode extension : CM (complete main)
Format settings, Endianness : Big
Codec ID : A_AC3
Duration : 1 h 28 min
Bit rate mode : Constant
Bit rate : 640 kb/s
Channel(s) : 6 channels
Channel positions : Front: L C R, Side: L R, LFE
Sampling rate : 48.0 kHz
Frame rate : 31.250 FPS (1536 spf)
Bit depth : 16 bits
Compression mode : Lossy
Stream size : 404 MiB (5%)
Title : Авторский (одноголосый закадровый) Вартан Дохалов
Language : Russian
Default : Yes
Forced : No
Audio #2
ID : 3
Format : AC-3
Format/Info : Audio Coding 3
Mode extension : CM (complete main)
Format settings, Endianness : Big
Codec ID : A_AC3
Duration : 1 h 28 min
Bit rate mode : Constant
Bit rate : 640 kb/s
Channel(s) : 6 channels
Channel positions : Front: L C R, Side: L R, LFE
Sampling rate : 48.0 kHz
Frame rate : 31.250 FPS (1536 spf)
Bit depth : 16 bits
Compression mode : Lossy
Stream size : 404 MiB (5%)
Title : Авторский (одноголосый закадровый) Юрий Живов
Language : Russian
Default : No
Forced : No
Audio #3
ID : 4
Format : AC-3
Format/Info : Audio Coding 3
Mode extension : CM (complete main)
Format settings, Endianness : Big
Codec ID : A_AC3
Duration : 1 h 28 min
Bit rate mode : Constant
Bit rate : 448 kb/s
Channel(s) : 6 channels
Channel positions : Front: L C R, Side: L R, LFE
Sampling rate : 48.0 kHz
Frame rate : 31.250 FPS (1536 spf)
Bit depth : 16 bits
Compression mode : Lossy
Stream size : 283 MiB (4%)
Title : Авторский (одноголосый закадровый) Jakob Bellmann
Language : Russian
Default : No
Forced : No
Audio #4
ID : 5
Format : AC-3
Format/Info : Audio Coding 3
Mode extension : CM (complete main)
Format settings, Endianness : Big
Codec ID : A_AC3
Duration : 1 h 28 min
Bit rate mode : Constant
Bit rate : 384 kb/s
Channel(s) : 6 channels
Channel positions : Front: L C R, Side: L R, LFE
Sampling rate : 48.0 kHz
Frame rate : 31.250 FPS (1536 spf)
Bit depth : 16 bits
Compression mode : Lossy
Stream size : 242 MiB (3%)
Language : English
Default : No
Forced : No
Text #1
ID : 6
Format : UTF-8
Codec ID : S_TEXT/UTF8
Codec ID/Info : UTF-8 Plain Text
Language : Russian
Default : No
Forced : No
Text #2
ID : 7
Format : UTF-8
Codec ID : S_TEXT/UTF8
Codec ID/Info : UTF-8 Plain Text
Title : Stevvie
Language : Russian
Default : No
Forced : No
Text #3
ID : 8
Format : UTF-8
Codec ID : S_TEXT/UTF8
Codec ID/Info : UTF-8 Plain Text
Language : English
Default : No
Forced : No
Menu
00:00:00.000 : en:00:00:00.000
00:08:25.630 : en:00:08:25.630
00:20:03.452 : en:00:20:03.452
00:27:50.043 : en:00:27:50.043
00:33:28.715 : en:00:33:28.715
00:37:06.891 : en:00:37:06.891
00:44:05.226 : en:00:44:05.226
00:53:19.988 : en:00:53:19.988
00:59:48.627 : en:00:59:48.627
01:11:31.787 : en:01:11:31.787
01:17:56.755 : en:01:17:56.755
01:25:07.978 : en:01:25:07.978


_________________
Проголосуй за трекер Открытый торрент трекер - RUS-MEDIA.ORG

Проголосуй Открытый торрент трекер - RUS-MEDIA.ORG



реклама партнёра


Вернуться к началу
 Профиль Отправить личное сообщение  
 
   Похожие торренты   Автор   Торрент   Размер 
В этой теме нет новых непрочитанных сообщений. Ночь Живых Мертвецов / Night Of The Living Dead [ужасы, 1990] BDRemux 1080p, Avo+Sub

salma3

31 | 3

24.06 ГБ

В этой теме нет новых непрочитанных сообщений. Ночь живых мертвецов / Night of the Living Dead [ужасы, 1968] BDRip 720p, Dvo+Avo+Sub

salma3

37 | 13

4.36 ГБ

В этой теме нет новых непрочитанных сообщений. Возвращение живых мертвецов / The Return of the Living Dead [ужасы, комедия, 1985] BDRip 1080p, Mvo [Remastered]

salma3

4 | 0

9.95 ГБ

В этой теме нет новых непрочитанных сообщений. Возвращение живых мертвецов 3 / Return of the Living Dead 3 [ужасы, 1993] BDRip-AVC, Mvo

salma3

41 | 24

744.89 МБ

В этой теме нет новых непрочитанных сообщений. Возвращение живых мертвецов / The Return of the Living Dead [ужасы, 1985] BDRip-AVC, Dvo

salma3

13 | 35

744.44 МБ

В этой теме нет новых непрочитанных сообщений. Возвращение живых мертвецов / The Return of the Living Dead [ужасы, комедия, 1985] BDRip, Avo [Remastered]

salma3

38 | 13

1.45 ГБ

В этой теме нет новых непрочитанных сообщений. Город живых мертвецов / City of the Living Dead [ужасы, 1980] BDRip 720p, Mvo+3Avo+Sub

salma3

43 | 4

4.24 ГБ


Начать новую тему Ответить на тему  [ 1 сообщение ] 




Для Мосгорсуда, Роскомнадзора и рекламодателей:: mosgorsud-torrent[собачка]yandex.ru