Торрент файл
скачать торрент магнет ссылка Добавлен: 28 янв 2017, 13:30
Размер: 4.36 ГБ
Сидеров: 37
Личеров: 13
Статус: (salma3)
Автор

СообщениеДобавлено: 28 янв 2017, 13:30 

Не в сети
Супермодератор
Аватара пользователя
Дата регистрации:
15 фев 2012, 16:44
Возраст: 29
Спасибо: 7339 / 2147
Сообщения: 75713
Год выхода: 1968
Жанр: ужасы
Режиссер: Джордж А. Ромеро

В ролях: Дуэйн Джонс, Джудит О’Ди, Карл Хардмен, Мэрилин Истман, Кит Уэйн, Джудит Ридли, Кира Шон, Чарльз Крэйг, С. Уильям Хинцмен, Джордж Косана

О фильме: Барбра и её брат Джонни приезжают на кладбище, расположенное в уединённом загородном месте. Неожиданно на них совершают нападение существа, напоминающие мертвецов, восставших из могил. Барбра укрывается в расположенном неподалёку доме, где также находят убежище темнокожий парень по имени Бен, супруги Гарри и Хелен Куперы с дочерью Карен, а также возлюбленные Том и Джуди. Лишь спустя время им удаётся узнать, что причиной катастрофы, уже принявшей планетарный масштаб, является радиоактивное излучение, занесённое с Венеры одним из космических кораблей НАСА.



Страна: США
Продолжительность: 01:35:52
Перевод: профессиональный (двухголосый) (Prestige) + профессиональный (одноголосый) (Tycoon) + оригинал

Файл
Кодек: x264
Качество: BDRip 720p
Видео: 960x720 (4:3); 5676 Kbps; 23,976 fps; 0,350 bpp
Аудио 1: Russian; AC3; 192 Kbps; CBR; 2 ch; Prestige
Аудио 2: Russian; AC3; 192 Kbps; CBR; 2 ch; Tycoon
Аудио 3: English; AC3; 448 Kbps; CBR; 2 ch
Субтитры: русские, английские
General
Complete name : Night.of.the.Living.Dead.1968.720p.BluRay.x264.Skazhutin.mkv
Format : Matroska
File size : 4.36 GiB
Duration : 1h 35mn
Overall bit rate : 6 510 Kbps
Encoded date : UTC 2010-07-01 20:30:34
Writing application : mkvmerge v4.1.0 ('Boiling Point') built on Jul 1 2010 14:37:28
Writing library : libebml v1.0.0 + libmatroska v1.0.0
Cover : Yes / Yes
Video
ID : 1
Format : AVC
Format/Info : Advanced Video Codec
Format profile : High@L4.1
Format settings, CABAC : Yes
Format settings, ReFrames : 11 frames
Muxing mode : Container profile=Unknown@4.1
Codec ID : V_MPEG4/ISO/AVC
Duration : 1h 35mn
Bit rate : 5 680 Kbps
Width : 960 pixels
Height : 720 pixels
Display aspect ratio : 4:3
Frame rate : 23.976 fps
Resolution : 8 bits
Colorimetry : 4:2:0
Scan type : Progressive
Bits/(Pixel*Frame) : 0.343
Stream size : 3.72 GiB (85%)
Title : 960x720 (4:3); 5676 Kbps; 23,976 fps; 0,350 bpp
Writing library : x264 core 100 r1659 57b2e56
Encoding settings : cabac=1 / ref=11 / deblock=1:-3:-3 / analyse=0x3:0x113 / me=umh / subme=10 / psy=1 / psy_rd=1.00:0.00 / mixed_ref=1 / me_range=32 / chroma_me=1 / trellis=2 / 8x8dct=1 / cqm=0 / deadzone=21,11 / fast_pskip=0 / chroma_qp_offset=-2 / threads=6 / sliced_threads=0 / nr=0 / decimate=0 / interlaced=0 / constrained_intra=0 / bframes=11 / b_pyramid=2 / b_adapt=2 / b_bias=0 / direct=3 / weightb=1 / open_gop=0 / weightp=2 / keyint=250 / keyint_min=25 / scenecut=40 / intra_refresh=0 / rc_lookahead=0 / rc=2pass / mbtree=0 / bitrate=5680 / ratetol=1.0 / qcomp=0.65 / qpmin=10 / qpmax=51 / qpstep=4 / cplxblur=20.0 / qblur=0.5 / vbv_maxrate=50000 / vbv_bufsize=62500 / ip_ratio=1.40 / pb_ratio=1.30 / aq=1:0.90 / nal_hrd=none
Matrix coefficients : BT.709-5, BT.1361, IEC 61966-2-4 709, SMPTE RP177
Audio #1
ID : 2
Format : AC-3
Format/Info : Audio Coding 3
Format_Settings_ModeExtension : CM (complete main)
Codec ID : A_AC3
Duration : 1h 35mn
Bit rate mode : Constant
Bit rate : 192 Kbps
Channel(s) : 2 channels
Channel positions : Front: L R
Sampling rate : 48.0 KHz
Stream size : 132 MiB (3%)
Title : DVO "Prestige"
Language : Russian
Audio #2
ID : 3
Format : AC-3
Format/Info : Audio Coding 3
Format_Settings_ModeExtension : CM (complete main)
Codec ID : A_AC3
Duration : 1h 35mn
Bit rate mode : Constant
Bit rate : 192 Kbps
Channel(s) : 2 channels
Channel positions : Front: L R
Sampling rate : 48.0 KHz
Stream size : 132 MiB (3%)
Title : VO "Tycoon"
Language : Russian
Audio #3
ID : 4
Format : AC-3
Format/Info : Audio Coding 3
Format_Settings_ModeExtension : CM (complete main)
Codec ID : A_AC3
Duration : 1h 35mn
Bit rate mode : Constant
Bit rate : 448 Kbps
Channel(s) : 2 channels
Channel positions : Front: L R
Sampling rate : 48.0 KHz
Stream size : 307 MiB (7%)
Title : Original
Text #1
ID : 5
Format : UTF-8
Codec ID : S_TEXT/UTF8
Codec ID/Info : UTF-8 Plain Text
Title : by DENnv
Language : Russian
Text #2
ID : 6
Format : UTF-8
Codec ID : S_TEXT/UTF8
Codec ID/Info : UTF-8 Plain Text
Title : Prestige
Language : Russian
Text #3
ID : 7
Format : UTF-8
Codec ID : S_TEXT/UTF8
Codec ID/Info : UTF-8 Plain Text
Title : Дмитрий Анисовец
Language : Russian
Text #4
ID : 8
Format : UTF-8
Codec ID : S_TEXT/UTF8
Codec ID/Info : UTF-8 Plain Text
Menu
00:00:00.000 : en:"They're Coming to Get You, Barbra..."
00:05:11.894 : en:Run for Your Life
00:10:07.189 : en:Besieged
00:18:58.137 : en:No Sunday School Picnic
00:31:54.203 : en:Unidentified Assassins
00:39:52.807 : en:The Safest Place
00:48:27.487 : en:Stick Together
00:55:27.782 : en:Mass Hysteria
01:04:27.738 : en:Carrying a Torch
01:15:26.855 : en:All Messed Up
01:22:44.042 : en:Here's Johnny
01:33:46.495 : en:Search and Destroy


_________________
Проголосуй за трекер Открытый торрент трекер - RUS-MEDIA.ORG

Проголосуй Открытый торрент трекер - RUS-MEDIA.ORG


Вернуться к началу
 Профиль Отправить личное сообщение  
 
   Похожие торренты   Автор   Торрент   Размер 
В этой теме нет новых непрочитанных сообщений. Ночь Живых Мертвецов / Night of the Living Dead [Ужасы, 1990] BDRip 1080p, Avo+Sub

salma3

102 | 23

7.33 ГБ

В этой теме нет новых непрочитанных сообщений. Город живых мертвецов / City of the Living Dead [ужасы, 1980] BDRip 720p, Mvo+3Avo+Sub

salma3

43 | 4

4.24 ГБ

В этой теме нет новых непрочитанных сообщений. Возвращение живых мертвецов 3 / Return of the Living Dead 3 [ужасы, 1993] BDRip-AVC, Mvo

salma3

41 | 24

744.89 МБ

В этой теме нет новых непрочитанных сообщений. Возвращение живых мертвецов / The Return of the Living Dead [ужасы, 1985] BDRip-AVC, Dvo

salma3

13 | 35

744.44 МБ

В этой теме нет новых непрочитанных сообщений. Возвращение живых мертвецов 3 / Return of the Living Dead 3 [Ужасы, Мелодрама, 1993] ВDRip 720p, Mvo

salma3

3 | 66

4.37 ГБ

В этой теме нет новых непрочитанных сообщений. Возвращение живых мертвецов / The Return of the Living Dead [ужасы, комедия, 1985] BDRip, Avo [Remastered]

salma3

38 | 13

1.45 ГБ

В этой теме нет новых непрочитанных сообщений. Возвращение живых мертвецов / The Return of the Living Dead [ужасы, комедия, 1985] BDRip 1080p, Mvo [Remastered]

salma3

4 | 0

9.95 ГБ


Начать новую тему Ответить на тему  [ 1 сообщение ] 




Для Мосгорсуда, Роскомнадзора и рекламодателей:: mosgorsud-torrent[собачка]yandex.ru
cron