Торрент файл
скачать торрент магнет ссылка Добавлен: 25 янв 2017, 22:21
Размер: 4.51 ГБ
Сидеров: 89
Личеров: 43
Статус: (salma3)
Автор

СообщениеДобавлено: 25 янв 2017, 22:21 

Не в сети
Супермодератор
Аватара пользователя
Дата регистрации:
15 фев 2012, 16:44
Возраст: 28
Спасибо: 6672 / 2146
Сообщения: 46181
Год выхода: 1974
Жанр: боевик, триллер, драма
Режиссер: Джек Смайт

В ролях: Чарлтон Хестон, Карен Блэк, Джордж Кеннеди, Ефрем Цимбалист мл., Сьюзен Кларк, Хелен Редди, Линда Блэр, Дэна Эндрюс, Рой Тиннес, Сид Сизар, Мирна Лой, Эд Нельсон, Нэнси Олсон, Ларри Сторч, Марта Скотт, Джерри Стиллер, Норман Фелл, Конрад Дженис, Беверли Гарлэнд, Линда Харрисон, Гай Стокуэлл, Эрик Эстрада, Кип Нивен, Чарльз Уайт, Брайан Моррисон, Эми Фаррелл, Ирэн Тсу, Кен Сэнсом, Алан Фьюдж, Кристофер Норрис

О фильме:
Небольшой частный самолет, неожиданно потерявший управление, на полном ходу врезается в «Боинг» Колумбийских авиалиний, выполняющий рейс N 409 Вашингтон — Лос-Анджелес. Второй пилот и бортинженер авиалайнера погибают, а капитан корабля теряет зрение. Радиосвязь с землей утеряна. Стюардесса Нэнси Прайор, пытающаяся успокоить пассажиров, понимает, что только счастливый случай может спасти несущийся над бездной самолет. Экранизация по произведению Артура Хейли.



Страна: США
Студия: Universal Pictures
Продолжительность: 01:46:24
Перевод: Профессиональный [многоголосый]

Файл
Кодек: x264
Качество: BDRip 720p [FilmHD]
Видео: MPEG-4 AVC, 4370 Кбит/с, 1280x544, 23.976 кадр/с
Звук:
Аудио #1: AC3, 2 ch, 192 Кбит/с | Русский
Аудио #2: DTS, 2 ch, 1509 Кбит/с | Aнглийский
Субтитры: Английские

Общее
Уникальный идентификатор : 189227708182819153559524433207378615262 (0x8E5BEE52B84DEA309CFDE2D3CE349BDE)
Полное имя : Airport.1975.BDRip.720p.mkv
Формат : Matroska
Версия формата : Version 4 / Version 2
Размер файла : 4,51 Гбайт
Продолжительность : 1 ч. 46 м.
Общий поток : 6074 Кбит/сек
Название фильма : Airport 1975
Дата кодирования : UTC 2017-01-25 16:27:22
Программа кодирования : mkvmerge v9.2.0 ('Photograph') 32bit
Библиотека кодирования : libebml v1.3.3 + libmatroska v1.4.4
Обложка : Yes
Attachments : cover.jpg

Видео
Идентификатор : 1
Формат : AVC
Формат/Информация : Advanced Video Codec
Профиль формата : High@L4.1
Параметр CABAC формата : Да
Параметр ReFrames формата : 5 кадров
Идентификатор кодека : V_MPEG4/ISO/AVC
Продолжительность : 1 ч. 46 м.
Битрейт : 4370 Кбит/сек
Ширина : 1280 пикселей
Высота : 544 пикселя
Соотношение сторон : 2,35:1
Режим частоты кадров : Постоянный
Частота кадров : 23,976 (24000/1001) кадра/сек
Цветовое пространство : YUV
Субдискретизация насыщенности : 4:2:0
Битовая глубина : 8 бит
Тип развёртки : Прогрессивная
Бит/(Пиксели*Кадры) : 0.262
Размер потока : 3,25 Гбайт (72%)
Библиотека кодирования : x264 core 148 r2744 b97ae06
Настройки программы : cabac=1 / ref=5 / deblock=1:0:0 / analyse=0x3:0x113 / me=umh / subme=8 / psy=1 / psy_rd=1.00:0.00 / mixed_ref=1 / me_range=16 / chroma_me=1 / trellis=1 / 8x8dct=1 / cqm=0 / deadzone=21,11 / fast_pskip=1 / chroma_qp_offset=-2 / threads=17 / lookahead_threads=2 / sliced_threads=0 / nr=0 / decimate=1 / interlaced=0 / bluray_compat=0 / constrained_intra=0 / bframes=3 / b_pyramid=2 / b_adapt=1 / b_bias=0 / direct=3 / weightb=1 / open_gop=0 / weightp=2 / keyint=240 / keyint_min=24 / scenecut=40 / intra_refresh=0 / rc_lookahead=50 / rc=2pass / mbtree=1 / bitrate=4370 / ratetol=1.0 / qcomp=0.60 / qpmin=0 / qpmax=69 / qpstep=4 / cplxblur=20.0 / qblur=0.5 / ip_ratio=1.40 / aq=1:1.00
Язык : English
Default : Да
Forced : Нет

Аудио #1
Идентификатор : 2
Формат : AC-3
Формат/Информация : Audio Coding 3
Расширение режима : CM (complete main)
Параметр Endianness формата : Big
Идентификатор кодека : A_AC3
Продолжительность : 1 ч. 46 м.
Вид битрейта : Постоянный
Битрейт : 192 Кбит/сек
Каналы : 2 канала
Расположение каналов : Front: L R
Частота : 48,0 КГц
Частота кадров : 31,250 кадров/сек (1536 spf)
Битовая глубина : 16 бит
Метод сжатия : С потерями
Размер потока : 146 Мбайт (3%)
Язык : Russian
Default : Да
Forced : Нет

Аудио #2
Идентификатор : 3
Формат : DTS
Формат/Информация : Digital Theater Systems
Режим : 16
Параметр Endianness формата : Big
Идентификатор кодека : A_DTS
Продолжительность : 1 ч. 46 м.
Вид битрейта : Постоянный
Битрейт : 1509 Кбит/сек
Каналы : 2 канала
Расположение каналов : Front: L R
Частота : 48,0 КГц
Частота кадров : 93,750 кадра/сек (512 spf)
Битовая глубина : 24 бит
Метод сжатия : С потерями
Размер потока : 1,12 Гбайт (25%)
Язык : English
Default : Нет
Forced : Нет

Текст
Идентификатор : 4
Формат : UTF-8
Идентификатор кодека : S_TEXT/UTF8
Идентификатор кодека/Информация : UTF-8 Plain Text
Продолжительность : 1 ч. 41 м.
Битрейт : 62 бит/сек
Count of elements : 1442
Размер потока : 46,2 Кбайт (0%)
Язык : English
Default : Да
Forced : Нет


_________________
Проголосуй за трекер Открытый торрент трекер - RUS-MEDIA.ORG

Проголосуй Открытый торрент трекер - RUS-MEDIA.ORG



реклама партнёра


Вернуться к началу
 Профиль Отправить личное сообщение  
 
   Похожие торренты   Автор   Торрент   Размер 
В этой теме нет новых непрочитанных сообщений. Аэропорт 1975 / Airport 1975 [боевик, триллер, драма, 1974] HDRip, Mvo

salma3

188 | 36

1.45 ГБ

В этой теме нет новых непрочитанных сообщений. Аэропорт / Airport [Триллер, Драма, 1970] BDRip, Dvo [НТВ+]

salma3

23 | 21

1.45 ГБ

В этой теме нет новых непрочитанных сообщений. Аэропорт / Airport [Триллер, Драма, 1970] BDRip-AVC, Dvo [НТВ+]

salma3

17 | 9

1.45 ГБ

В этой теме нет новых непрочитанных сообщений. Аэропорт / Airport [Триллер, Драма, 1970] BDRip 1080p, Dvo

salma3

5 | 1

5.77 ГБ

В этой теме нет новых непрочитанных сообщений. Аэропорт 77 / Airport '77 [боевик, триллер, драма, 1977] DVDRip, Mvo

salma3

45 | 10

1.46 ГБ

В этой теме нет новых непрочитанных сообщений. Конкорд: Аэропорт-79 / The Concorde: Airport '79 [Триллер, драма, приключения, 1979] BDRip 1080p, Mvo

salma3

24 | 3

15.83 ГБ

В этой теме нет новых непрочитанных сообщений. Конкорд: Аэропорт-79 / The Concorde: Airport '79 [боевик, приключения, триллер, драма, 1979] DVDRip, Mvo

salma3

98 | 17

1.46 ГБ


Начать новую тему Ответить на тему  [ 1 сообщение ] 




Для Мосгорсуда, Роскомнадзора и рекламодателей:: mosgorsud-torrent[собачка]yandex.ru