Торрент файл
скачать торрент магнет ссылка Добавлен: 23 янв 2017, 13:18
Размер: 3.14 ГБ
Сидеров: 575
Личеров: 136
Статус: (salma3)
Автор

СообщениеДобавлено: 23 янв 2017, 13:18 

Не в сети
Супермодератор
Аватара пользователя
Дата регистрации:
15 фев 2012, 16:44
Возраст: 29
Спасибо: 7379 / 2147
Сообщения: 75986
Год выхода: 2016
Жанр: Ужасы, фантастика, триллер, драма
Режиссер: Генри Джуст, Эриель Шульман

В ролях: София Блэк-Д’Элиа, Анали Типтон, Трэвис Тоуп, Майкл Келли, Машин Ган Келли, Джон Котрэн, Стоуни Вэстмолэнд, Линзи Грэй, Джудиэнн Элдер, Филип Лэйбс

О фильме:
Фильм рассказывает о вспышке вируса, который уничтожает большую часть населения нашей планеты. Молодая женщина документирует жизнь своей семьи в карантине и пытается защитить зараженную сестру.



Страна: США
Студия: Blumhouse Productions, Busted Shark Productions
Продолжительность: 01:25:51
Перевод: Дублированный [iTunes]

Файл
Качество: WEB-DL 1080p
Видео: MPEG-4 AVC, 1908x800, 4462 Kbit/s, 23.976 fps
Звук:
Аудио #01: 48 kHz, AC3, 5.1, 384 Kbps | Дублированный |
Аудио #02: 48 kHz, AC3, 5.1, 384 kbps | Оригинал |
Субтитры: Английские

General
Unique ID : 226039893178653141869722341659705369563 (0xAA0DB32BFBCB3F6E877A4500A2C863DB)
Complete name : F:VideoViral.2016.DD.WEB-DL.1080p.ExKinoRay.mkv
Format : Matroska
Format version : Version 4 / Version 2
File size : 3.14 GiB
Duration : 1 h 25 min
Overall bit rate : 5 232 kb/s
Encoded date : UTC 2017-01-22 21:27:21
Writing application : mkvmerge v8.3.0 ('Over the Horizon') 64bit
Writing library : libebml v1.3.1 + libmatroska v1.4.2

Video
ID : 1
Format : AVC
Format/Info : Advanced Video Codec
Format profile : High@L4
Format settings, CABAC : Yes
Format settings, ReFrames : 5 frames
Codec ID : V_MPEG4/ISO/AVC
Duration : 1 h 25 min
Bit rate : 4 462 kb/s
Width : 1 908 pixels
Height : 800 pixels
Display aspect ratio : 2.40:1
Frame rate mode : Constant
Frame rate : 23.976 (23976/1000) FPS
Color space : YUV
Chroma subsampling : 4:2:0
Bit depth : 8 bits
Scan type : Progressive
Bits/(Pixel*Frame) : 0.122
Stream size : 2.68 GiB (85%)
Language : English
Default : Yes
Forced : No
Color range : Limited
Color primaries : BT.709
Transfer characteristics : BT.709
Matrix coefficients : BT.709

Audio #1
ID : 2
Format : AC-3
Format/Info : Audio Coding 3
Mode extension : CM (complete main)
Format settings, Endianness : Big
Codec ID : A_AC3
Duration : 1 h 25 min
Bit rate mode : Constant
Bit rate : 384 kb/s
Channel(s) : 6 channels
Channel positions : Front: L C R, Side: L R, LFE
Sampling rate : 48.0 kHz
Frame rate : 31.250 FPS (1536 spf)
Bit depth : 16 bits
Compression mode : Lossy
Stream size : 236 MiB (7%)
Title : iTunes
Language : Russian
Default : Yes
Forced : No

Audio #2
ID : 3
Format : AC-3
Format/Info : Audio Coding 3
Mode extension : CM (complete main)
Format settings, Endianness : Big
Codec ID : A_AC3
Duration : 1 h 25 min
Bit rate mode : Constant
Bit rate : 384 kb/s
Channel(s) : 6 channels
Channel positions : Front: L C R, Side: L R, LFE
Sampling rate : 48.0 kHz
Frame rate : 31.250 FPS (1536 spf)
Bit depth : 16 bits
Compression mode : Lossy
Stream size : 236 MiB (7%)
Title : Original
Language : English
Default : No
Forced : No

Text
ID : 4
Format : UTF-8
Codec ID : S_TEXT/UTF8
Codec ID/Info : UTF-8 Plain Text
Duration : 1 h 21 min
Bit rate : 43 b/s
Count of elements : 1008
Stream size : 25.5 KiB (0%)
Title : Full
Language : English
Default : No
Forced : No

Menu
00:00:00.000 : en:Chapter 1
00:05:41.925 : en:Chapter 2
00:12:29.332 : en:Chapter 3
00:16:41.876 : en:Chapter 4
00:21:07.474 : en:Chapter 5
00:27:25.602 : en:Chapter 6
00:33:13.741 : en:Chapter 7
00:39:08.679 : en:Chapter 8
00:45:29.976 : en:Chapter 9
00:49:49.026 : en:Chapter 10
00:54:15.250 : en:Chapter 11
01:00:21.574 : en:Chapter 12
01:05:46.398 : en:Chapter 13
01:11:06.050 : en:Chapter 14
01:18:18.148 : en:Chapter 15
01:22:01.120 : en:Chapter 16


Релиз от: Автор релиза:


_________________
Проголосуй за трекер Открытый торрент трекер - RUS-MEDIA.ORG

Проголосуй Открытый торрент трекер - RUS-MEDIA.ORG


Вернуться к началу
 Профиль Отправить личное сообщение  
 
   Похожие торренты   Автор   Торрент   Размер 
В этой теме нет новых непрочитанных сообщений. Вирус / Viral [ужасы, фантастика, триллер, драма, 2016] WEB-DLRip, Dub [iTunes]

salma3

736 | 118

1.45 ГБ

В этой теме нет новых непрочитанных сообщений. Вирус / Viral [ужасы, фантастика, триллер, драма, 2016] BDRip-AVC, Dub [iTunes]

salma3

194 | 37

1.43 ГБ

В этой теме нет новых непрочитанных сообщений. Вирус / Viral [Ужасы, фантастика, триллер, драма, 2016] WEBDLRip-AVC, Dub [iTunes]

salma3

523 | 65

1.46 ГБ

В этой теме нет новых непрочитанных сообщений. Вирус / Viral [ужасы, фантастика, триллер, драма, 2016] WEB-DLRip, Mvo

salma3

1471 | 94

1.36 ГБ

В этой теме нет новых непрочитанных сообщений. Вирус / Viral (2016) WEB-DLRip от MegaPeer | iTunes

marya111

225 | 32

745.87 МБ

В этой теме нет новых непрочитанных сообщений. Морган / Morgan [ужасы, фантастика, триллер, детектив, 2016] WEB-DL 1080p, Dub [iTunes]

salma3

192 | 51

3.43 ГБ

В этой теме нет новых непрочитанных сообщений. Морган / Morgan (ужасы, фантастика, триллер, детектив, 2016) BDRip 1080p от New-Team | iTunes

marya111

1995 | 272

8.91 ГБ


Начать новую тему Ответить на тему  [ 1 сообщение ] 




Для Мосгорсуда, Роскомнадзора и рекламодателей:: mosgorsud-torrent[собачка]yandex.ru
cron