Торрент файл
скачать торрент магнет ссылка Добавлен: 25 янв 2017, 22:47
Размер: 9.23 ГБ
Сидеров: 350
Личеров: 190
Статус: (salma3)
Автор

СообщениеДобавлено: 22 янв 2017, 21:22 

Не в сети
Супермодератор
Аватара пользователя
Дата регистрации:
15 фев 2012, 16:44
Возраст: 28
Спасибо: 6659 / 2146
Сообщения: 46021
Год выпуска: 2016
Жанр: боевик, триллер, криминал, детектив
Режиссер: Эдвард Цвик

В ролях: Том Круз, Коби Смолдерс, Элдис Ходж, Даника Ярош, Патрик Хьюсингер, Холт МакКэллани, Джудд Лорманд, Кристофер Берри, Хантер Бурк, Джейсон Дуглас

Описание:Экс-военный Джек Ричер приезжает в Вашингтон, чтобы впервые встретиться с майором Сьюзен Тернер, которая возглавила его бывшее подразделение и не раз выручала его в непростых ситуациях. По странному стечению обстоятельств буквально накануне его визита майора арестовывают по обвинению в измене… Ричеру, уверенному в невиновности Сьюзен, предстоит освободить ее и раскрыть заговор, ниточки которого тянутся на самый верх. Стремясь докопаться до правды, он также делает поразительное открытие, способное раз и навсегда изменить его жизнь…



Страна: Китай, США
Продолжительность: 01:58:08
Перевод: Профессиональный (полное дублирование)[Лицензия]
Субтитры: Русские (forced, full), английские

Формат: BDRip 1080p
Видео: MPEG-4 AVC, 1920x804, 9917 Kbit/s, 23.976 fps
Аудио01: 48 kHz, AC3, 5.1, 640 Kbps | Дублированный |
Аудио02: 48 kHz, AC3, 5.1, 640 kbps | Оригинал

General
Unique ID : 244665413706820591250600300123702365504 (0xB810D83BBA83CA448EC645495EEF0D40)
Complete name : F:VideoJack.Reacher.Never.Go.Back.2016.D.BDRip.1080p.ExKinoRay.mkv
Format : Matroska
Format version : Version 4 / Version 2
File size : 9.23 GiB
Duration : 1 h 58 min
Overall bit rate : 11.2 Mb/s
Movie name : Jack.Reacher.Never.Go.Back.2016 ***селезень***
Encoded date : UTC 2017-01-25 18:20:07
Writing application : mkvmerge v8.3.0 ('Over the Horizon') 64bit
Writing library : libebml v1.3.1 + libmatroska v1.4.2

Video
ID : 1
Format : AVC
Format/Info : Advanced Video Codec
Format profile : High@L4.1
Format settings, CABAC : Yes
Format settings, ReFrames : 5 frames
Codec ID : V_MPEG4/ISO/AVC
Duration : 1 h 58 min
Bit rate : 9 917 kb/s
Width : 1 920 pixels
Height : 804 pixels
Display aspect ratio : 2.40:1
Frame rate mode : Constant
Frame rate : 23.976 (24000/1001) FPS
Color space : YUV
Chroma subsampling : 4:2:0
Bit depth : 8 bits
Scan type : Progressive
Bits/(Pixel*Frame) : 0.268
Stream size : 8.18 GiB (89%)
Writing library : x264 core 146 r2538 121396c
Encoding settings : cabac=1 / ref=5 / deblock=1:-3:-3 / analyse=0x3:0x133 / me=umh / subme=11 / psy=1 / psy_rd=1.05:0.05 / mixed_ref=1 / me_range=64 / chroma_me=1 / trellis=2 / 8x8dct=1 / cqm=0 / deadzone=21,11 / fast_pskip=0 / chroma_qp_offset=-3 / threads=6 / lookahead_threads=1 / sliced_threads=0 / nr=0 / decimate=0 / interlaced=0 / bluray_compat=0 / constrained_intra=0 / bframes=8 / b_pyramid=2 / b_adapt=2 / b_bias=0 / direct=3 / weightb=1 / open_gop=0 / weightp=2 / keyint=240 / keyint_min=23 / scenecut=40 / intra_refresh=0 / rc_lookahead=50 / rc=2pass / mbtree=0 / bitrate=9917 / ratetol=1.0 / qcomp=0.60 / qpmin=0 / qpmax=69 / qpstep=4 / cplxblur=20.0 / qblur=0.5 / vbv_maxrate=50000 / vbv_bufsize=62500 / nal_hrd=none / filler=0 / ip_ratio=1.40 / pb_ratio=1.30 / aq=1:0.80
Language : English
Default : Yes
Forced : No

Audio #1
ID : 2
Format : AC-3
Format/Info : Audio Coding 3
Mode extension : CM (complete main)
Format settings, Endianness : Big
Codec ID : A_AC3
Duration : 1 h 58 min
Bit rate mode : Constant
Bit rate : 640 kb/s
Channel(s) : 6 channels
Channel positions : Front: L C R, Side: L R, LFE
Sampling rate : 48.0 kHz
Frame rate : 31.250 FPS (1536 spf)
Bit depth : 16 bits
Compression mode : Lossy
Stream size : 541 MiB (6%)
Title : Dub [License]
Language : Russian
Default : Yes
Forced : No

Audio #2
ID : 3
Format : AC-3
Format/Info : Audio Coding 3
Mode extension : CM (complete main)
Format settings, Endianness : Big
Codec ID : A_AC3
Duration : 1 h 58 min
Bit rate mode : Constant
Bit rate : 640 kb/s
Channel(s) : 6 channels
Channel positions : Front: L C R, Side: L R, LFE
Sampling rate : 48.0 kHz
Frame rate : 31.250 FPS (1536 spf)
Bit depth : 16 bits
Compression mode : Lossy
Stream size : 541 MiB (6%)
Title : Original
Language : English
Default : No
Forced : No

Text #1
ID : 4
Format : UTF-8
Codec ID : S_TEXT/UTF8
Codec ID/Info : UTF-8 Plain Text
Duration : 1 h 13 min
Bit rate : 0 b/s
Count of elements : 8
Stream size : 406 Bytes (0%)
Title : Forced [iTunes]
Language : Russian
Default : Yes
Forced : No

Text #2
ID : 5
Format : UTF-8
Codec ID : S_TEXT/UTF8
Codec ID/Info : UTF-8 Plain Text
Duration : 1 h 52 min
Bit rate : 79 b/s
Count of elements : 1277
Stream size : 65.5 KiB (0%)
Title : Full [iTunes]
Language : Russian
Default : No
Forced : No

Text #3
ID : 6
Format : UTF-8
Codec ID : S_TEXT/UTF8
Codec ID/Info : UTF-8 Plain Text
Duration : 1 h 51 min
Bit rate : 50 b/s
Count of elements : 1387
Stream size : 41.2 KiB (0%)
Title : Full
Language : English
Default : No
Forced : No

Menu
00:00:00.000 : en:00:00:00.000
00:07:00.629 : en:00:07:00.629
00:15:19.877 : en:00:15:19.877
00:20:33.858 : en:00:20:33.858
00:29:04.576 : en:00:29:04.576
00:34:35.740 : en:00:34:35.740
00:42:40.141 : en:00:42:40.141
00:49:28.007 : en:00:49:28.007
00:58:44.563 : en:00:58:44.563
01:03:10.161 : en:01:03:10.161
01:09:35.755 : en:01:09:35.755
01:15:05.334 : en:01:15:05.334
01:21:59.665 : en:01:21:59.665
01:27:07.222 : en:01:27:07.222
01:34:14.065 : en:01:34:14.065
01:46:44.857 : en:01:46:44.857
01:53:30.846 : en:01:53:30.846





_________________
Проголосуй за трекер Открытый торрент трекер - RUS-MEDIA.ORG

Проголосуй Открытый торрент трекер - RUS-MEDIA.ORG



реклама партнёра


Вернуться к началу
 Профиль Отправить личное сообщение  
 
   Похожие торренты   Автор   Торрент   Размер 
В этой теме нет новых непрочитанных сообщений. Джек Ричер 2: Никогда не возвращайся / Jack Reacher: Never Go Back [боевик, триллер, криминал, детектив, 2016] BDRip, Dub+Sub [Лицензия]

salma3

383 | 78

1.46 ГБ

В этой теме нет новых непрочитанных сообщений. Джек Ричер 2: Никогда не возвращайся / Jack Reacher: Never Go Back (Боевик, триллер, криминал, детектив, приключения, 2016) BDRip от Kaztorrents | КПК | Лицензия

marya111

99 | 24

759.89 МБ

В этой теме нет новых непрочитанных сообщений. Джек Ричер 2: Никогда не возвращайся / Jack Reacher: Never Go Back (боевик, триллер, криминал, детектив, приключения, 2016) BDRip 720p от HELLYWOOD | Лицензия

marya111

439 | 152

5.76 ГБ

В этой теме нет новых непрочитанных сообщений. Джек Ричер 2: Никогда не возвращайся / Jack Reacher: Never Go Back [боевик, триллер, криминал, 2016] BDRip, Dub+Sub [Лицензия]

marya111

292 | 99

2.18 ГБ

В этой теме нет новых непрочитанных сообщений. Джек Ричер 2: Никогда не возвращайся / Jack Reacher: Never Go Back [боевик, триллер, криминал, 2016] BDRip-AVC, Dub+Sub [Лицензия]

salma3

51 | 20

2.9 ГБ

В этой теме нет новых непрочитанных сообщений. Джек Ричер 2: Никогда не возвращайся / Jack Reacher: Never Go Back [боевик, триллер, криминал, 2016] BDRip-AVC, Dub+Sub [Лицензия]

salma3

37 | 10

2.19 ГБ

В этой теме нет новых непрочитанных сообщений. Джек Ричер 2: Никогда не возвращайся / Jack Reacher: Never Go Back [боевик, триллер, криминал, детектив, приключения, 2016] BD Remux 1080p, Dub+Sub [iTunes]

salma3

32 | 63

26.78 ГБ


СообщениеДобавлено: 25 янв 2017, 22:47 

Не в сети
Супермодератор
Аватара пользователя
Дата регистрации:
15 фев 2012, 16:44
Возраст: 28
Спасибо: 6659 / 2146
Сообщения: 46021
salma3 писал(а):
Re: Джек Ричер 2: Никогда не возвращайся / Jack Reacher: Never Go Back [боевик, триллер, криминал, детектив, 2016] BDRip 1080p, Dub+Sub [Лицензия]

_________________
Проголосуй за трекер Открытый торрент трекер - RUS-MEDIA.ORG

Проголосуй Открытый торрент трекер - RUS-MEDIA.ORG


Вернуться к началу
 Профиль Отправить личное сообщение  
 
Начать новую тему Ответить на тему  [ Сообщений: 2 ] 




Для Мосгорсуда, Роскомнадзора и рекламодателей:: mosgorsud-torrent[собачка]yandex.ru